***Уважаемые пользователи и гости !!! Сайт переехал на новый домен Torrents-club.net. Просьба изменить ваши закладки! ***
 
[ Сегодня идет свободное скачивание без начисления Download ]


Статистика раздачи
Нет
 
   
 
 
 
 
Подлинная история Русской революции / История Русской революции [01-08 из 08] (2017) HDTV 1080i Название: Подлинная история Русской революции
Оригинальное название: История Русской революции
Год выпуска: 2017
Жанр: История, документальный
Выпущено: Россия, Star Media, Бабич Дизайн
Режиссер: Павел Тупик
В ролях: Иван Бровин, Семён Мендельсон, Денис Моисеев, Андрей Зарубин (II), Александр Ронис, Борис Хасанов, Александр Лушин (II), Юрий Уткин, Антон Падерин, Андрей Матвеев, Михаил Сидаш, Дмитрий Новиков (III), Сергей Малахов, Роман Ушаков, Егор Лесников, Сергей Красавин, Валерий Степанов, Артём Яковлев, Вадим Волков, Евгений Клубов, Владимир Брик, Андрей Павлютин, Константин Исаев (III), Виктор Михайлов (III), Алексей Евсюков, Сергей Цветков (VI)
О фильме: 1917-й год. Год раз и навсегда изменивший Россию, став поворотным моментом нашей истории. Сто лет назад вихрь Февральской революции смел тысячелетнюю монархию, последний император дома Романовых отрекся от престола. В стране наступила эра невиданной свободы. В один миг сбылись самые смелые мечты русских революционеров и других противников царского режима. Казалось, Россию ждет новый взлет и процветание. Вместо этого страна получила разруху, экономический кризис и поражения на фронтах. Вскоре пришло еще одно потрясение - Октябрьская революция.
Качество: HDTV (1080i)
Видео: MPEG-TS AVC, ~ 6000 Кбит/с, 1920x1080
Аудио: Русский (AC3, 2 ch, 384 Кбит/с), (MP2, 2 ch, 192 Кбит/с)
Продолжительность: 8 х ~ 00:50:00

MediaInfo:

Общее
Идентификатор : 1 (0x1)
Полное имя : D:\Запись\Podlinnaja istorija Russkoj revoljucii.HDTV(1080i).GeneralFilm\01.Podlinnaja istorija Russkoj revoljucii.HDTV(1080i).GeneralFilm.ts
Формат : MPEG-TS
Размер файла : 2,53 Гбайт
Продолжительность : 49 м. 27 с.
Режим общего битрейта : Переменный
Общий поток : 7324 Кбит/сек
Видео
Идентификатор : 1904 (0x770)
Идентификатор меню : 5640 (0x1608)
Формат : AVC
Формат/Информация : Advanced Video Codec
Профиль формата : High@L4
Параметр CABAC формата : Да
Параметр ReFrames формата : 3 кадра
Идентификатор кодека : 27
Продолжительность : 49 м. 27 с.
Битрейт : 6380 Кбит/сек
Ширина : 1920 пикселей
Высота : 1080 пикселей
Соотношение сторон : 16:9
Частота кадров : 25,000 кадров/сек
Стандарт вещания : Component
Цветовое пространство : YUV
Субдискретизация насыщенности : 4:2:0
Битовая глубина : 8 бит
Тип развёртки : Чересстрочная
Метод сохранения типа развёртки : Раздельные поля
Порядок развёртки : Верхнее поле первое
Бит/(Пиксели*Кадры) : 0.123
Размер потока : 2,20 Гбайт (87%)
Цветовой диапазон : Limited
Основные цвета : BT.709
Характеристики трансфера : BT.709
Коэффициенты матрицы : BT.709
Аудио #1
Идентификатор : 2904 (0xB58)
Идентификатор меню : 5640 (0x1608)
Формат : AC-3
Формат/Информация : Audio Coding 3
Расширение режима : CM (complete main)
Параметр Endianness формата : Big
Идентификатор кодека : 6
Продолжительность : 49 м. 27 с.
Вид битрейта : Постоянный
Битрейт : 384 Кбит/сек
Каналы : 6 каналов
Расположение каналов : Front: L C R, Side: L R, LFE
Частота : 48,0 КГц
Частота кадров : 31,250 кадров/сек (1536 spf)
Битовая глубина : 16 бит
Метод сжатия : С потерями
Задержка видео : -40 мс.
Размер потока : 136 Мбайт (5%)
Язык : Russian
Аудио #2
Идентификатор : 2905 (0xB59)
Идентификатор меню : 5640 (0x1608)
Формат : MPEG Audio
Версия формата : Version 1
Профиль формата : Layer 2
Идентификатор кодека : 3
Продолжительность : 49 м. 27 с.
Вид битрейта : Постоянный
Битрейт : 192 Кбит/сек
Каналы : 2 канала
Частота : 48,0 КГц
Метод сжатия : С потерями
Задержка видео : -40 мс.
Размер потока : 67,9 Мбайт (3%)
Язык : Russian

Скриншоты


[Цитировать]



Показать сообщения:    

Текущее время: 19-Окт 11:09

Часовой пояс: UTC + 6


Вы не можете начинать темы
Вы не можете отвечать на сообщения
Вы не можете редактировать свои сообщения
Вы не можете удалять свои сообщения
Вы не можете голосовать в опросах
Вы не можете прикреплять файлы к сообщениям
Вы не можете скачивать файлы

!ВНИМАНИЕ!
Сайт не предоставляет электронные версии произведений, а занимается лишь коллекционированием и каталогизацией ссылок, присылаемых и публикуемых на форуме нашими читателями. Если вы являетесь правообладателем какого-либо представленного материала и не желаете, чтобы ссылка на него находилась в нашем каталоге, свяжитесь с нами, и мы незамедлительно удалим ее. Файлы для обмена на трекере предоставлены пользователями сайта, и администрация не несет ответственности за их содержание. Просьба не заливать файлы, защищенные авторскими правами, а также файлы нелегального содержания!