***Уважаемые пользователи и гости !!! Сайт переехал на новый домен Torrents-club.net. Просьба изменить ваши закладки! ***
 
[ Сегодня идет свободное скачивание без начисления Download ]


Статистика раздачи
Нет
 
   
 
 
 
 
Прегрешение: Семь смертных грехов
sin 七つの大罪
Sin: Nanatsu no Taizai | Seven Mortal Sins
- Информация
Тип: TV
Жанр: приключения, фэнтези, этти
Продолжительность: 12 эпизодов по 25 минут
Количество серий: 12 из 12 + 30 спешлов
Дата выпуска: c 15.04.2017 по 29.07.2017
Производство: студия Artland, студия TNK
Автор оригинала: Кавахара Масанобу
Режиссер: Ёсимото Киндзи
Ссылки: World-Art, ANN, AniDB, MyAnimeList, Сетка вещания
Описание:
Гордый архангел Люцифер ослушался Бога и был низвергнут в глубины ада. По пути вниз падший ангел знакомится с обычной земной школьницей по имени Мария, которая ей помогает. Уже в аду Люцифер встречается с Левиафаном, которая рассказывает бывшему ангелу про Семь Смертных Грехов — семерых демонов, правящих адом. Когда Семь Смертных Грехов запечатывают ангельские силы Люцифера, та в компании Марии и Левиафана отправляется в путешествие, цель которого — отыскать и одолеть каждую из демониц.

Язык озвучки: Русский
TV-1 (AniDub), (Anilibria), (Animedia), (SovetRomantica) - внешними файлами
Язык субтитров: Русский
Перевод: (Aiso), (Jenia aka Zub); c моими правками по дизайну и шрифтами.
Файл
Качество видео: BDrip, 10-bit
Видео: AVC (High10@L4.1), 1920x1080 (16:9), ~23.976 fps, ~9 Mbps
Аудио 1: FLAC, 48.0 KHz, ~1500 kbps, 2 ch (Японский, Artland / TNK)
Аудио 2: AC3, 48.0 KHz, 192 kbps, 2 ch (внешние) (Русский, AniDub)
Аудио 3: AC3, 48.0 KHz, 192 kbps, 2 ch (внешние) (Русский, Anilibria)
Аудио 4: AC3, 48.0 KHz, 192 kbps, 2 ch (внешние) (Русский, Animedia)
Аудио 5: AC3, 48.0 KHz, 192 kbps, 2 ch (внешние) (Русский, SovetRomantica)

Скриншоты

Скриншоты:

Более интересные скриншоты:

Эпизоды:

01. Гордость падшего ангела
02. Во власти дикой зависти
03. Пляж похоти
04. Город тумана, в котором кипит жадность
05. Дева уныния
06. Леность в интернете
07. Безобидная обжора
08. Вольный гнев
09. Оставь надежды, всяк сюда входящий
10. Любите врагов своих и молитесь за тех, кто докучает вам
11. Проси, и тебе будет даровано прощение
12. Целый мир без происшествий, словно обитель божья

Спешлы:

1 - Эпизод 4.5 - Деяния самих демонов (Компиляция эпизодов с 1 по 4), ~25 минут
2-20 - спешлы по ~2 минуты
21-30 - спешлы радио шоу по ~5 минут

СаундТреки:

2017 OP&ED My Sweet Maiden&Welcome To Our Diabolic Paradise [FLAC]
2017 sin Nanatsu no Taizai Maoutachi ni yoru Chinkonka CD [FLAC]
2017 sin Nanatsu no Taizai Original Soundtrack [mp3]
2017 sin Nanatsu no Taizai web radio bonus cd [mp3]

Mediainfo:

General
Complete name : F:\Downloads4\Sin Nanatsu no Taizai [TV-1] [2017] [BDRip] [1080p] [RUS + JAP]\Sin Nanatsu no Taizai 09 (BDRip 1920x1080 x264 hi10p FLAC Rus + Jap).mkv
Format : Matroska
Format version : Version 4 / Version 2
File size : 1.86 GiB
Duration : 23 min 40 s
Overall bit rate mode : Variable
Overall bit rate : 11.2 Mb/s
Encoded date : UTC 2017-12-29 20:50:21
Writing application : mkvmerge v18.0.0 ('Apricity') 64-bit
Writing library : libebml v1.3.5 + libmatroska v1.4.8
Video
ID : 1
Format : AVC
Format/Info : Advanced Video Codec
Format profile : High 10@L4.1
Format settings : CABAC / 4 Ref Frames
Format settings, CABAC : Yes
Format settings, RefFrames : 4 frames
Codec ID : V_MPEG4/ISO/AVC
Duration : 23 min 40 s
Bit rate mode : Variable
Bit rate : 9 721 kb/s
Maximum bit rate : 150 Mb/s
Width : 1 920 pixels
Height : 1 080 pixels
Display aspect ratio : 16:9
Frame rate mode : Constant
Frame rate : 23.976 (24000/1001) FPS
Color space : YUV
Chroma subsampling : 4:2:0
Bit depth : 10 bits
Scan type : Progressive
Bits/(Pixel*Frame) : 0.196
Stream size : 1.61 GiB (87%)
Writing library : x264 core 152 r2851 ba24899 [L-SMASH]
Encoding settings : cabac=1 / ref=4 / deblock=1:0:0 / analyse=0x3:0x133 / me=esa / subme=9 / psy=1 / psy_rd=2.00:0.00 / mixed_ref=1 / me_range=24 / chroma_me=1 / trellis=2 / 8x8dct=1 / cqm=0 / deadzone=21,11 / fast_pskip=0 / chroma_qp_offset=-2 / threads=30 / lookahead_threads=1 / sliced_threads=0 / nr=0 / decimate=0 / interlaced=0 / bluray_compat=0 / constrained_intra=0 / bframes=3 / b_pyramid=2 / b_adapt=2 / b_bias=0 / direct=3 / weightb=1 / open_gop=0 / weightp=2 / keyint=250 / keyint_min=4 / scenecut=40 / intra_refresh=0 / rc_lookahead=60 / rc=crf / mbtree=1 / crf=15.0 / qcomp=0.60 / qpmin=0 / qpmax=81 / qpstep=4 / vbv_maxrate=150000 / vbv_bufsize=150000 / crf_max=0.0 / nal_hrd=vbr / filler=0 / ip_ratio=1.40 / aq=1:1.00
Default : Yes
Forced : No
Color range : Limited
Color primaries : BT.709
Transfer characteristics : BT.709
Matrix coefficients : BT.709
Audio
ID : 2
Format : FLAC
Format/Info : Free Lossless Audio Codec
Codec ID : A_FLAC
Duration : 23 min 40 s
Bit rate mode : Variable
Bit rate : 1 510 kb/s
Channel(s) : 2 channels
Channel positions : Front: L R
Sampling rate : 48.0 kHz
Frame rate : 11.719 FPS (4096 SPF)
Bit depth : 24 bits
Stream size : 256 MiB (13%)
Writing library : libFLAC 1.3.1 (UTC 2014-11-25)
Language : Japanese
Default : Yes
Forced : No
Menu
00:00:00.000 : en:1
00:00:49.049 : en:опенинг
00:02:19.014 : en:3
00:11:04.998 : en:4
00:22:01.987 : en:эндинг
00:23:31.994 : en:6
00:23:36.999 : en:7

[Цитировать]



Показать сообщения:    

Текущее время: 08-Дек 14:03

Часовой пояс: UTC + 6


Вы не можете начинать темы
Вы не можете отвечать на сообщения
Вы не можете редактировать свои сообщения
Вы не можете удалять свои сообщения
Вы не можете голосовать в опросах
Вы не можете прикреплять файлы к сообщениям
Вы не можете скачивать файлы

!ВНИМАНИЕ!
Сайт не предоставляет электронные версии произведений, а занимается лишь коллекционированием и каталогизацией ссылок, присылаемых и публикуемых на форуме нашими читателями. Если вы являетесь правообладателем какого-либо представленного материала и не желаете, чтобы ссылка на него находилась в нашем каталоге, свяжитесь с нами, и мы незамедлительно удалим ее. Файлы для обмена на трекере предоставлены пользователями сайта, и администрация не несет ответственности за их содержание. Просьба не заливать файлы, защищенные авторскими правами, а также файлы нелегального содержания!