***Уважаемые пользователи и гости !!! Сайт переехал на новый домен Torrents-club.net. Просьба изменить ваши закладки! ***
 
[ Сегодня идет свободное скачивание без начисления Download ]


Статистика раздачи
Нет
 
   
 
 
 
Зимние Олимпийские игры 2018. Пхёнчхан (Корея). Хоккей. Женщины. Группа A. 1-й тур: Канада — Россия (11.02.2018) WEB-DL 720p- Телекомпания: Россия, Первый канал
Жанр: Спорт
Комментатор: Андрей Юртаев
Описание: 11 февраля 2018 года, воскресенье. 15:10 МСК
XXIII Зимние Олимпийские игры 2018. Пхёнчхан (Корея).
Хоккей. Женщины.
Группа A. 1-й тур: Канада — Россия
Арена: Хоккейный центр "Квандон" (Пхёнчхан, Южная Корея)
Главные судьи: Николета Целарова (Словакия), Катарина Тимглас (Швеция).
Продолжительность: 01:55:27
Качество видео: WEB-DL
Язык озвучки: Русский
Субтитры: отсутствуют
Видео: AVC/H.264, 1280x720 (16:9), ~3801 Kbps
Аудио: AAC, 2 ch, 48 kHz, 128 Kbps

Mediainfo:

Общее
Уникальный идентификатор : 122879715980519972938028035016489268321 (0x5C71C5BFB504932D5873145FD2057461)
Полное имя : F:\2018 Winter Olympics Games. PyeongChang (KOR)\Хоккей\(11.02.2018)_WOG 2018.Ice Hockey.Womens PR1.Gr_A. CAN - RUS(OAR)_1HD.mkv
Формат : Matroska
Версия формата : Version 4 / Version 2
Размер файла : 3,17 Гбайт
Продолжительность : 1 ч. 55 м.
Общий поток : 3932 Кбит/сек
Дата кодирования : UTC 2018-02-13 00:20:52
Программа кодирования : mkvmerge v20.0.0 ('I Am The Sun') 32-bit
Библиотека кодирования : libebml v1.3.5 + libmatroska v1.4.8
Видео
Идентификатор : 1
Формат : AVC
Формат/Информация : Advanced Video Codec
Профиль формата : High@L3.1
Настройки формата : CABAC / 4 Ref Frames
Параметр CABAC формата : Да
Параметр RefFrames формата : 4 кадра
Идентификатор кодека : V_MPEG4/ISO/AVC
Продолжительность : 1 ч. 55 м.
Битрейт : 3801 Кбит/сек
Ширина : 1280 пикселей
Высота : 720 пикселей
Соотношение сторон : 16:9
Режим частоты кадров : Постоянный
Частота кадров : 25,000 кадров/сек
Цветовое пространство : YUV
Субдискретизация насыщенности : 4:2:0
Битовая глубина : 8 бит
Тип развёртки : Прогрессивная
Бит/(Пиксели*Кадры) : 0.165
Размер потока : 3,07 Гбайт (97%)
Default : Да
Forced : Нет
Аудио
Идентификатор : 2
Формат : AAC
Формат/Информация : Advanced Audio Codec
Профиль формата : LC
Идентификатор кодека : A_AAC-2
Продолжительность : 1 ч. 55 м.
Битрейт : 128 Кбит/сек
Каналы : 2 канала
Расположение каналов : Front: L R
Частота : 48,0 КГц
Частота кадров : 46,875 кадров/сек (1024 SPF)
Метод сжатия : С потерями
Размер потока : 106 Мбайт (3%)
Язык : Russian
Default : Да
Forced : Нет
Скриншоты:

[Цитировать]

Спасибо!!!!

[Цитировать]



Показать сообщения:    

Текущее время: 08-Дек 14:00

Часовой пояс: UTC + 6


Вы не можете начинать темы
Вы не можете отвечать на сообщения
Вы не можете редактировать свои сообщения
Вы не можете удалять свои сообщения
Вы не можете голосовать в опросах
Вы не можете прикреплять файлы к сообщениям
Вы не можете скачивать файлы

!ВНИМАНИЕ!
Сайт не предоставляет электронные версии произведений, а занимается лишь коллекционированием и каталогизацией ссылок, присылаемых и публикуемых на форуме нашими читателями. Если вы являетесь правообладателем какого-либо представленного материала и не желаете, чтобы ссылка на него находилась в нашем каталоге, свяжитесь с нами, и мы незамедлительно удалим ее. Файлы для обмена на трекере предоставлены пользователями сайта, и администрация не несет ответственности за их содержание. Просьба не заливать файлы, защищенные авторскими правами, а также файлы нелегального содержания!