***Уважаемые пользователи и гости !!! Сайт переехал на новый домен Torrents-club.net. Просьба изменить ваши закладки! ***
 
[ Сегодня идет свободное скачивание без начисления Download ]


Статистика раздачи
Нет
 
   
 
 
 
XXIII Зимние Олимпийские игры 2018. Пхёнчхан (Корея). Биатлон. Мужчины. Индивидуальная гонка 20 км (15.02.2018) WEB-DL 720p - Телекомпания: Первый канал
Жанр: Спорт
Комментаторы: Николай Круглов, Дмитрий Терехов
Описание: 15 февраля 2018 года, четверг. 14:20 МСК
XXIII Зимние Олимпийские игры 2018. Пхёнчхан (Корея).
Биатлон. Мужчины.
Индивидуальная гонка 20 км
Арена: Центр биатлона "Альпензия" (Пхёнчхан, Южная Корея)
Продолжительность: 01:42:46
Качество видео: WEB-DL
Язык озвучки: Русский
Субтитры: отсутствуют
Видео: AVC/H.264, 1280x720 (16:9), ~3799 Kbps
Аудио: AAC, 2 ch, 48 kHz, 128

Mediainfo:

Общее
Уникальный идентификатор : 81597196964048291735888815874171160489 (0x3D630C6A91A3841D1408E6B08AAF47A9)
Полное имя : F:\2018 Winter Olympics Games. PyeongChang (KOR)\Биатлон\(15.02.2018)_OWG 2018.Biathlon. Mens 20km Individual_Первый.mkv
Формат : Matroska
Версия формата : Version 4 / Version 2
Размер файла : 2,82 Гбайт
Продолжительность : 1 ч. 42 м.
Общий поток : 3930 Кбит/сек
Дата кодирования : UTC 2018-02-19 19:32:49
Программа кодирования : mkvmerge v20.0.0 ('I Am The Sun') 32-bit
Библиотека кодирования : libebml v1.3.5 + libmatroska v1.4.8
Видео
Идентификатор : 1
Формат : AVC
Формат/Информация : Advanced Video Codec
Профиль формата : High@L3.1
Настройки формата : CABAC / 4 Ref Frames
Параметр CABAC формата : Да
Параметр RefFrames формата : 4 кадра
Идентификатор кодека : V_MPEG4/ISO/AVC
Продолжительность : 1 ч. 42 м.
Битрейт : 3799 Кбит/сек
Ширина : 1280 пикселей
Высота : 720 пикселей
Соотношение сторон : 16:9
Режим частоты кадров : Постоянный
Частота кадров : 25,000 кадров/сек
Цветовое пространство : YUV
Субдискретизация насыщенности : 4:2:0
Битовая глубина : 8 бит
Тип развёртки : Прогрессивная
Бит/(Пиксели*Кадры) : 0.165
Размер потока : 2,73 Гбайт (97%)
Default : Да
Forced : Нет
Аудио
Идентификатор : 2
Формат : AAC
Формат/Информация : Advanced Audio Codec
Профиль формата : LC
Идентификатор кодека : A_AAC-2
Продолжительность : 1 ч. 42 м.
Битрейт : 128 Кбит/сек
Каналы : 2 канала
Расположение каналов : Front: L R
Частота : 48,0 КГц
Частота кадров : 46,875 кадров/сек (1024 SPF)
Метод сжатия : С потерями
Размер потока : 94,1 Мбайт (3%)
Язык : Russian
Default : Да
Forced : Нет
Скриншоты:

[Цитировать]



Показать сообщения:    

Текущее время: 08-Дек 15:07

Часовой пояс: UTC + 6


Вы не можете начинать темы
Вы не можете отвечать на сообщения
Вы не можете редактировать свои сообщения
Вы не можете удалять свои сообщения
Вы не можете голосовать в опросах
Вы не можете прикреплять файлы к сообщениям
Вы не можете скачивать файлы

!ВНИМАНИЕ!
Сайт не предоставляет электронные версии произведений, а занимается лишь коллекционированием и каталогизацией ссылок, присылаемых и публикуемых на форуме нашими читателями. Если вы являетесь правообладателем какого-либо представленного материала и не желаете, чтобы ссылка на него находилась в нашем каталоге, свяжитесь с нами, и мы незамедлительно удалим ее. Файлы для обмена на трекере предоставлены пользователями сайта, и администрация не несет ответственности за их содержание. Просьба не заливать файлы, защищенные авторскими правами, а также файлы нелегального содержания!