***Уважаемые пользователи и гости !!! Сайт переехал на новый домен Torrents-club.net. Просьба изменить ваши закладки! ***
 
[ Сегодня идет свободное скачивание без начисления Download ]


Статистика раздачи
Нет
 
   
 
 
 
Зимние Олимпийские игры 2018. Пхёнчхан (Корея). Хоккей. Женщины. Группа B. 3-й тур: Швеция — Швейцария (14.02.2018) WEB-DL 720p- Телекомпания: TeleSport
Жанр: Спорт
Описание: 14 февраля 2018 года, среда. 06:10 МСК
XXIII Зимние Олимпийские игры 2018. Пхёнчхан (Корея).
Хоккей. Женщины.
Группа B. 3-й тур: Швеция — Швейцария
Арена: Хоккейный центр "Квандон" (Пхёнчхан, Южная Корея)
Главные судьи: Николета Целарова (Словакия), Кэти Гуай (США).
Продолжительность: 01:39:49
Качество видео: WEB-DL
Перевод: Не требуется, нет голосовых комментариев
Язык озвучки: Интершум
Субтитры: отсутствуют
Видео: AVC/H.264, 1280x720 (16:9), ~6148 Kbps, 50 fps
Аудио: AAC, 2 ch, 48 kHz, 128 Kbps

Mediainfo:

Общее
Уникальный идентификатор : 101913898113391529819807122152137344163 (0x4CABE71EB9AE0EA0E755A9758D0AC4A3)
Полное имя : F:\2018 Winter Olympics Games. PyeongChang (KOR)\Хоккей\(14.02.2018)_OWG 2018.Ice Hockey.Womens PR3.Gr_B. SWE - SUI.720p.mkv
Формат : Matroska
Версия формата : Version 4 / Version 2
Размер файла : 4,38 Гбайт
Продолжительность : 1 ч. 39 м.
Общий поток : 6282 Кбит/сек
Дата кодирования : UTC 2018-02-18 22:52:20
Программа кодирования : mkvmerge v20.0.0 ('I Am The Sun') 32-bit
Библиотека кодирования : libebml v1.3.5 + libmatroska v1.4.8
Видео
Идентификатор : 1
Формат : AVC
Формат/Информация : Advanced Video Codec
Профиль формата : Baseline@L3.2
Настройки формата : 3 Ref Frames
Параметр CABAC формата : Нет
Параметр RefFrames формата : 3 кадра
Идентификатор кодека : V_MPEG4/ISO/AVC
Продолжительность : 1 ч. 39 м.
Битрейт : 6148 Кбит/сек
Ширина : 1280 пикселей
Высота : 720 пикселей
Соотношение сторон : 16:9
Режим частоты кадров : Постоянный
Частота кадров : 50,000 кадров/сек
Цветовое пространство : YUV
Субдискретизация насыщенности : 4:2:0
Битовая глубина : 8 бит
Тип развёртки : Прогрессивная
Бит/(Пиксели*Кадры) : 0.133
Размер потока : 4,29 Гбайт (98%)
Default : Да
Forced : Нет
Аудио
Идентификатор : 2
Формат : AAC
Формат/Информация : Advanced Audio Codec
Профиль формата : LC
Идентификатор кодека : A_AAC-2
Продолжительность : 1 ч. 39 м.
Битрейт : 129 Кбит/сек
Каналы : 2 канала
Расположение каналов : Front: L R
Частота : 48,0 КГц
Частота кадров : 46,875 кадров/сек (1024 SPF)
Метод сжатия : С потерями
Размер потока : 92,1 Мбайт (2%)
Язык : Несколько языков
Default : Да
Forced : Нет
Скриншоты:

[Цитировать]



Показать сообщения:    

Текущее время: 06-Дек 02:36

Часовой пояс: UTC + 6


Вы не можете начинать темы
Вы не можете отвечать на сообщения
Вы не можете редактировать свои сообщения
Вы не можете удалять свои сообщения
Вы не можете голосовать в опросах
Вы не можете прикреплять файлы к сообщениям
Вы не можете скачивать файлы

!ВНИМАНИЕ!
Сайт не предоставляет электронные версии произведений, а занимается лишь коллекционированием и каталогизацией ссылок, присылаемых и публикуемых на форуме нашими читателями. Если вы являетесь правообладателем какого-либо представленного материала и не желаете, чтобы ссылка на него находилась в нашем каталоге, свяжитесь с нами, и мы незамедлительно удалим ее. Файлы для обмена на трекере предоставлены пользователями сайта, и администрация не несет ответственности за их содержание. Просьба не заливать файлы, защищенные авторскими правами, а также файлы нелегального содержания!