***Уважаемые пользователи и гости !!! Сайт переехал на новый домен Torrents-club.net. Просьба изменить ваши закладки! ***
 
[ Сегодня идет свободное скачивание без начисления Download ]


Статистика раздачи
Нет
 
   
 
 
 
 
Как из обычной девушки воспитать героиню
Saenai Heroine no Sodatekata
Saekano: How to Raise a Boring Girlfriend
- Информация
Жанр: комедия, школа
Тип: TV-сериал
Продолжительность: 13 эпизодов по 25 минут
Выпуск: c 09.01.2015 по 27.03.2015
Автор: Маруто Фумиаки
Режиссер: Камэй Канта
Производство: A-1 Pictures Inc.
Информационные ссылки: AniDB || World Art || MAL || ANN
Описание:
16-летний Томоя Аки знает, что истинный отаку - не тот, кто сутками смотрит аниме, глотает мангу и играет в игры. Нет, отаку – это вечный искатель, солдат великой армии искусства, что носит в ранце маршальский жезл будущего творца. В общем, Томоя, встретив под цветущей сакурой девушку своей мечты, «воспылал» и решил подготовить к Комикету полноценную визуальную новеллу с собой и прекрасной незнакомкой в главных ролях. Осталось создать творческий коллектив, но, к счастью, подруг по увлечению вокруг хватает!
Аки решил действовать по золотому стандарту и набирать в кружок уже готовые прототипы эрогэ, чтобы упростить дальнейшую работу. Художница Эрири, подруга детства – есть. На год старшая Утаха, королева школы и тайная писательница – великолепно! Гитаристка Митиру, младшая кузина – сойдет. И тут выяснилось, что «девушка мечты», одноклассница Мэгуми Като – серое и скучное создание, кроме симпатичного личика с нее и взять нечего. Ничего, и похуже воспитывали, к Комикету превратится в такую «героиню», что сам Бог-Покоритель не справится!


Перевод:
Русские субтитры от Gerale & Komugi-chan & Ryuji
Файл
Качество: BDRip | Энкод: Winter
Формат: MKV
Видео: x264 (10 bit) 1280x720, ~3100 Kbps, 23.976 fps
Аудио: Vorbis, 256 Kbps, 48.0 kHz, 2 ch JPN
Аудио: AC-3, 192 Kbps, 48.0 kHz, 2 ch (внешними файлами) RUS
Субтитры: ASS, Полные | Надписи (внешними файлами) RUS

Список озвучек:

двухголосая (муж./жен.) от Absurd & Eladiel (Onibaku)
двухголосая (муж./жен.) от Fuurou & Shina (AniDub)
двухголосая (муж./жен.) от Seimin [1-10] / Dark_Demon [11-13] & Miori (Cactus)
трехголосая от Karkazik & NesTea & Ruri (SHIZA)

Список эпизодов:

01. Fan Service of Love and Youth
02. An Error-Ridden Prologue
03. A Girlfriend Without a Raised Flag
04. Retake the Climax
05. Budget, Deadline and New Development
06. The Date Event of Crossing Paths
07. Deciding the Night for Two
08. Friend, Foe or a New Character
09. A Wingman`s Traumatic Recollection Mode
10. One-on-one Route After 8 Years
11. A Melody of Reminiscing and Support
12. Ready to Start Resolving the Subplots
13. The Ups and Downs at the End of Each Day

Тех. параметры:

General
Unique ID : 184445843045877283521780166232312385312 (0x8AC2FA2B59CC5F05A3B63D72E1200F20)
Complete name : Saenai Heroine no Sodatekata [BD] [720p]\[W] Saenai Heroine no Sodatekata 01 [BDrip 1280x720 x264 Vorbis].mkv
Format : Matroska
Format version : Version 2
File size : 560 MiB
Duration : 22mn 53s
Overall bit rate mode : Variable
Overall bit rate : 3 420 Kbps
Encoded date : UTC 2015-09-08 19:53:18
Writing application : mkvmerge v2.9.8 ('C'est le bon') built on Aug 13 2009 12:49:06
Writing library : libebml v0.7.7 + libmatroska v0.8.1
Video
ID : 1
Format : AVC
Format/Info : Advanced Video Codec
Format profile : High 10@L4.1
Format settings, CABAC : Yes
Format settings, ReFrames : 9 frames
Codec ID : V_MPEG4/ISO/AVC
Duration : 22mn 53s
Bit rate : 3 096 Kbps
Width : 1 280 pixels
Height : 720 pixels
Display aspect ratio : 16:9
Frame rate mode : Constant
Frame rate : 23.976 fps
Color space : YUV
Chroma subsampling : 4:2:0
Bit depth : 10 bits
Scan type : Progressive
Bits/(Pixel*Frame) : 0.140
Stream size : 507 MiB (91%)
Writing library : x264 core 132 r2309 3b1f1f7
Encoding settings : cabac=1 / ref=9 / deblock=1:-2:-2 / analyse=0x3:0x133 / me=umh / subme=9 / psy=1 / psy_rd=0.90:0.00 / mixed_ref=1 / me_range=24 / chroma_me=1 / trellis=2 / 8x8dct=1 / cqm=0 / deadzone=21,11 / fast_pskip=1 / chroma_qp_offset=-2 / threads=12 / lookahead_threads=2 / sliced_threads=0 / nr=0 / decimate=0 / interlaced=0 / bluray_compat=0 / constrained_intra=0 / bframes=8 / b_pyramid=2 / b_adapt=2 / b_bias=0 / direct=1 / weightb=1 / open_gop=0 / weightp=2 / keyint=250 / keyint_min=23 / scenecut=40 / intra_refresh=0 / rc=crf / mbtree=0 / crf=15.6 / qcomp=0.70 / qpmin=9 / qpmax=40 / qpstep=4 / ip_ratio=1.40 / pb_ratio=1.30 / aq=1:0.90
Default : No
Forced : No
Audio
ID : 2
Format : Vorbis
Format settings, Floor : 1
Codec ID : A_VORBIS
Duration : 22mn 53s
Bit rate mode : Variable
Bit rate : 256 Kbps
Channel(s) : 2 channels
Sampling rate : 48.0 KHz
Compression mode : Lossy
Stream size : 41.9 MiB (7%)
Writing library : libVorbis (Schaufenugget) (20101101 (Schaufenugget))
Language : Japanese
Default : Yes
Forced : No

Скриншоты

[Цитировать]



Показать сообщения:    

Текущее время: 08-Дек 13:51

Часовой пояс: UTC + 6


Вы не можете начинать темы
Вы не можете отвечать на сообщения
Вы не можете редактировать свои сообщения
Вы не можете удалять свои сообщения
Вы не можете голосовать в опросах
Вы не можете прикреплять файлы к сообщениям
Вы не можете скачивать файлы

!ВНИМАНИЕ!
Сайт не предоставляет электронные версии произведений, а занимается лишь коллекционированием и каталогизацией ссылок, присылаемых и публикуемых на форуме нашими читателями. Если вы являетесь правообладателем какого-либо представленного материала и не желаете, чтобы ссылка на него находилась в нашем каталоге, свяжитесь с нами, и мы незамедлительно удалим ее. Файлы для обмена на трекере предоставлены пользователями сайта, и администрация не несет ответственности за их содержание. Просьба не заливать файлы, защищенные авторскими правами, а также файлы нелегального содержания!