***Уважаемые пользователи и гости !!! Сайт переехал на новый домен Torrents-club.net. Просьба изменить ваши закладки! ***
 
[ Сегодня идет свободное скачивание без начисления Download ]


Статистика раздачи
Нет
 
   
 
 
 
Вайолет Эвергарден
Violet Evergarden
- Информация
Оригинальное название: Violet Evergarden
Русское название: Вайолет Эвергарден
Производство: Япония
Жанр: драма, фентези
Продолжительность: ~00:25:00 серия
Выпуск: 2018
Студия: Kyoto Animation
Краткое содержание
Давным давно профессор по имени Орлан, влиятельная фигура в полиграфической промышленности, изобрел новую печатную машину для своей жены Молли, чтобы она могла писать романы после потери зрения. Машина получила вид мелкой прекрасной куклы. Вложив в него свое сердце и надежды, профессор назвал его «Автоматические воспоминания». В конце концов, куклы «Автоматические воспоминания» стали широко распространены, поддерживая жизнь многих людей. Теперь этот термин применяется к женщинам, чья работа заключается в том, чтобы поместить мысли в слова, либо для тех, кто не может писать, либо от имени других. В центре повествования андроид по имени Виолетта Эвергарден, которая ушла с военной службы и теперь работает в почтовой компании CH.


Перевод: Андрей Зайцев, Алиса Трушина
Озвучание: Любительское (многоголосое закадровое): Rin, Баяна, Delete, Constantine
Работа со звуком: Vladislav
Файл
Качество: WEBRip 1080p | Формат: .mkv | Рип: HorribleSubs
Видео: x264 (8 bit.), 1920x1080, 3 480 kbps, 23.976 fps
Звук (Russian): aac, 184 kbps, 48.0 KHz, 2 ch
Звук (Japanese): aac, 170 kbps, 48.0 KHz, 2 ch
Субтитры (Russian): ass, встроенные | Надписи
Главы: Присутствуют-

Список серий

01. Я люблю тебя и Автозаписывающая кукла
02. Никогда не вернется
03. "Теперь ты настоящая Автозапоминающая кукла"
04. Ты не оружие, а девушка с красивым именем.
05. "Ты пишешь письма об их чувствах?"
06. "Где-нибудь под звездным небом"
07. Безымянный
08. Эпизод восьмой
09. Вайолет Эвергарден
10. "Любящие люди всегда присматривают за нами"
11. Больше никто не умрет
12. Эпизод двенадцатый
13. Автозаписывающая кукла и «я люблю тебя»

MediaInfo:


General
Complete name : C:\[AniFilm] Violet Evergarden [MVO]\[AniFilm] Violet Evergarden - 01 [WEBRip 1080p] [MVO].mkv
Format : Matroska
Format version : Version 4 / Version 2
File size : 659 MiB
Duration : 24 min 13 s
Overall bit rate mode : Variable
Overall bit rate : 3 801 kb/s
Encoded date : UTC 2018-01-22 11:15:25
Writing application : mkvmerge v9.9.0 ('Pick Up') 64bit
Writing library : libebml v1.3.4 + libmatroska v1.4.5
Attachments : gnyrwn971.ttf / OpenSans-Semibold.ttf
Video
ID : 1
Format : AVC
Format/Info : Advanced Video Codec
Format profile : Main@L4
Format settings : CABAC / 3 Ref Frames
Format settings, CABAC : Yes
Format settings, ReFrames : 3 frames
Codec ID : V_MPEG4/ISO/AVC
Duration : 24 min 13 s
Bit rate mode : Variable
Bit rate : 3 480 kb/s
Maximum bit rate : 5 220 kb/s
Width : 1 920 pixels
Height : 1 080 pixels
Display aspect ratio : 16:9
Frame rate mode : Constant
Frame rate : 23.976 (24000/1001) FPS
Color space : YUV
Chroma subsampling : 4:2:0
Bit depth : 8 bits
Scan type : Progressive
Bits/(Pixel*Frame) : 0.070
Stream size : 597 MiB (91%)
Writing library : x264 core 148 r2714 2daf636
Encoding settings : cabac=1 / ref=3 / deblock=1:0:0 / analyse=0x1:0x111 / me=umh / subme=10 / psy=1 / psy_rd=1.00:0.00 / mixed_ref=1 / me_range=24 / chroma_me=1 / trellis=2 / 8x8dct=0 / cqm=0 / deadzone=21,11 / fast_pskip=1 / chroma_qp_offset=-2 / threads=8 / lookahead_threads=1 / sliced_threads=0 / nr=0 / decimate=1 / interlaced=0 / bluray_compat=0 / stitchable=1 / constrained_intra=0 / bframes=2 / b_pyramid=0 / b_adapt=2 / b_bias=0 / direct=3 / weightb=1 / open_gop=0 / weightp=2 / keyint=48 / keyint_min=25 / scenecut=0 / intra_refresh=0 / rc_lookahead=48 / rc=2pass / mbtree=1 / bitrate=3480 / ratetol=1.0 / qcomp=0.50 / qpmin=6 / qpmax=51 / qpstep=4 / cplxblur=20.0 / qblur=0.5 / vbv_maxrate=5220 / vbv_bufsize=6960 / nal_hrd=vbr / filler=0 / ip_ratio=1.40 / aq=1:1.00
Default : Yes
Forced : No
Audio #1
ID : 2
Format : AAC
Format/Info : Advanced Audio Codec
Format profile : LC
Codec ID : A_AAC-2
Duration : 24 min 13 s
Bit rate : 183 kb/s
Channel(s) : 2 channels
Channel positions : Front: L R
Sampling rate : 48.0 kHz
Frame rate : 46.875 FPS (1024 SPF)
Compression mode : Lossy
Stream size : 31.8 MiB (5%)
Title : MVO | AniFilm
Language : Russian
Default : Yes
Forced : Yes
Audio #2
ID : 3
Format : AAC
Format/Info : Advanced Audio Codec
Format profile : LC
Codec ID : A_AAC-2
Duration : 24 min 13 s
Bit rate : 170 kb/s
Channel(s) : 2 channels
Channel positions : Front: L R
Sampling rate : 48.0 kHz
Frame rate : 46.875 FPS (1024 SPF)
Compression mode : Lossy
Stream size : 29.4 MiB (4%)
Title : Original
Language : Japanese
Default : No
Forced : No
Text #1
ID : 4
Format : ASS
Codec ID : S_TEXT/ASS
Codec ID/Info : Advanced Sub Station Alpha
Duration : 21 min 1 s
Bit rate : 2 b/s
Count of elements : 3
Compression mode : Lossless
Stream size : 354 Bytes (0%)
Title : Надписи
Language : Russian
Default : Yes
Forced : Yes
Text #2
ID : 5
Format : ASS
Codec ID : S_TEXT/ASS
Codec ID/Info : Advanced Sub Station Alpha
Duration : 23 min 19 s
Bit rate : 149 b/s
Count of elements : 339
Compression mode : Lossless
Stream size : 25.6 KiB (0%)
Title : Полный перевод
Language : Russian
Default : No
Forced : No
Menu
00:00:00.000 : ru:Начало
00:02:47.266 : ru:Часть Первая
00:12:12.866 : ru:Часть Вторая

Скриншоты



Последний раз редактировалось: ketonal150 (2018-06-16 00:32), всего редактировалось 3 раз(а)

[Цитировать]

https://www.youtube.com/watch?v=Q5HXwlowTC0

[Цитировать]



Показать сообщения:    

Текущее время: 13-Дек 11:48

Часовой пояс: UTC + 6


Вы не можете начинать темы
Вы не можете отвечать на сообщения
Вы не можете редактировать свои сообщения
Вы не можете удалять свои сообщения
Вы не можете голосовать в опросах
Вы не можете прикреплять файлы к сообщениям
Вы не можете скачивать файлы

!ВНИМАНИЕ!
Сайт не предоставляет электронные версии произведений, а занимается лишь коллекционированием и каталогизацией ссылок, присылаемых и публикуемых на форуме нашими читателями. Если вы являетесь правообладателем какого-либо представленного материала и не желаете, чтобы ссылка на него находилась в нашем каталоге, свяжитесь с нами, и мы незамедлительно удалим ее. Файлы для обмена на трекере предоставлены пользователями сайта, и администрация не несет ответственности за их содержание. Просьба не заливать файлы, защищенные авторскими правами, а также файлы нелегального содержания!