***Уважаемые пользователи и гости !!! Сайт переехал на новый домен Torrents-club.net. Просьба изменить ваши закладки! ***
 
[ Сегодня идет свободное скачивание без начисления Download ]


Статистика раздачи
Скачал: [ 2 ]
 
   
 
 
 
Место встречи изменить нельзя [01-05 из 05] (1979) HDTV 1080i Информация о фильме
Название: Место встречи изменить нельзя
Год выхода: 1979
Жанр: Приключения, криминал, детектив, экранизация
Режиссер: Станислав Говорухин
В ролях: Владимир Высоцкий, Владимир Конкин, Сергей Юрский, Виктор Павлов, Наталья Фатеева, Леонид Куравлёв, Светлана Светличная, Александр Белявский, Евгений Евстигнеев, Армен Джигарханян, Лариса Удовиченко, Станислав Садальский, Валерия Заклунная, Зиновий Гердт, Евгений Леонов-Гладышев
О фильме:
Лето 1945 года. Отгремел салют Великой Победы и страна постепенно возвращается к мирной жизни. Послевоенная Москва только начинает приходить в себя, но преступники уже вовсю развернули свою бурную деятельность. В городе появляется неуловимая банда «Черная кошка», наводя ужас на москвичей. Недавно демобилизовавшийся молодой командир офицер Володя Шарапов, придя по распределению в МУР, приступает к работе в отделе по борьбе с бандитизмом. Начальник отдела капитан Глеб и Шарапов вступают в схватку с бандитами. Первое дело Шарапова – убийство Ларисы Груздевой, но за ними последует череда других дерзких преступлений.

Страна: СССР
Студия: Гостелерадио, Одесская киностудия
Продолжительность: 5 x ~ 01:00:00
Перевод: Не требуется
Файл
Тип релиза: HDTV 1080i
Контейнер: MKV
Видео: MPEG4 Video (H264) 1920x1080 25fps ~13.000 kbps
Аудио: MPEG2 Audio 48000Hz stereo 192kbps

M/I

General
Complete name : Место встречи изменить нельзя (1979) HDTV 1080i - 02 серия.mkv
Format : Matroska
Format version : Version 4 / Version 2
File size : 6.64 GiB
Duration : 1 h 10 min
Overall bit rate : 13.4 Mb/s
Writing application : VideoReDo (Lavf57.71.100)
Writing library : VideoReDo (Lavf57.71.100)
ErrorDetectionType : Per level 1
Video
ID : 1
Format : AVC
Format/Info : Advanced Video Codec
Format profile : High@L4
Format settings : CABAC / 4 Ref Frames
Format settings, CABAC : Yes
Format settings, ReFrames : 4 frames
Codec ID : V_MPEG4/ISO/AVC
Duration : 1 h 10 min
Bit rate : 13.0 Mb/s
Width : 1 920 pixels
Height : 1 080 pixels
Display aspect ratio : 16:9
Frame rate mode : Constant
Frame rate : 25.000 FPS
Standard : Component
Color space : YUV
Chroma subsampling : 4:2:0
Bit depth : 8 bits
Scan type : Interlaced
Scan type, store method : Separated fields
Scan order : Top Field First
Bits/(Pixel*Frame) : 0.250
Stream size : 6.41 GiB (97%)
Default : No
Forced : No
Color range : Limited
Color primaries : BT.709
Transfer characteristics : BT.709
Matrix coefficients : BT.709
Audio
ID : 2
Format : MPEG Audio
Format version : Version 1
Format profile : Layer 2
Codec ID : A_MPEG/L2
Codec ID/Hint : MP2
Duration : 1 h 10 min
Bit rate mode : Constant
Bit rate : 192 kb/s
Channel(s) : 2 channels
Sampling rate : 48.0 kHz
Compression mode : Lossy
Stream size : 97.1 MiB (1%)
Language : Russian
Default : Yes
Forced : No

Скриншоты

[Цитировать]



Показать сообщения:    

Текущее время: 09-Дек 15:40

Часовой пояс: UTC + 6


Вы не можете начинать темы
Вы не можете отвечать на сообщения
Вы не можете редактировать свои сообщения
Вы не можете удалять свои сообщения
Вы не можете голосовать в опросах
Вы не можете прикреплять файлы к сообщениям
Вы не можете скачивать файлы

!ВНИМАНИЕ!
Сайт не предоставляет электронные версии произведений, а занимается лишь коллекционированием и каталогизацией ссылок, присылаемых и публикуемых на форуме нашими читателями. Если вы являетесь правообладателем какого-либо представленного материала и не желаете, чтобы ссылка на него находилась в нашем каталоге, свяжитесь с нами, и мы незамедлительно удалим ее. Файлы для обмена на трекере предоставлены пользователями сайта, и администрация не несет ответственности за их содержание. Просьба не заливать файлы, защищенные авторскими правами, а также файлы нелегального содержания!