***Уважаемые пользователи и гости !!! Сайт переехал на новый домен Torrents-club.net. Просьба изменить ваши закладки! ***
 
[ Сегодня идет свободное скачивание без начисления Download ]


Статистика раздачи
Нет
 
   
 
 
 
Звёздный десант (Предатель Марса) / Starship Troopers: Traitor of Mars (2017) [4K, HEVC, HDR, Dolby Vision / Blu-Ray Remux] (2160p) Год выпуска: 2017
Жанр: Мультфильм, фантастика, боевик
Выпущено: США, Nu Boyana Film Studios, Nu-Image Films
Режиссер: Синдзи Арамаки, Масару Мацумото
Продолжительность: 01:27:44
Перевод: Профессиональный многоголосый
возраст 16+
В ролях: Каспер Ван Дин, Дина Мейер, ДеРэй Дэвис, Люси Кристиан, Джастин Доран

О фильме
: На колонизированном людьми Марсе жизнь течёт мирно и спокойно. В остальной Федерации марсиан считают недалёкими, и десантник Джон Рико уже тоже начинает сомневаться в способностях своего отряда - раз за разом команда проваливает на симуляторе миссии по уничтожению колонии жуков. И когда внезапно Марс атакуют полчища уже настоящих гигантских насекомых, отряду новичков придется доказать, что марсиане способны постоять за родную планету.
ЗВЁЗДНЫЙ ДЕСАНТ - ПРЕДАТЕЛЬ МАРСА // ТРЕЙЛЕР
Техданные
Качество: Blu-Ray Remux (2160p)
Видео: HEVC, 62.4 Мбит/с, 3840x2160, 23.976 кадр/с
Аудио: Русский (AC3, 6 ch, 640 Кбит/с)
Релиз
Сделано под плеер OLED LG. Проверять пока нет возможности.

MediaInfo:

Общее
Полное имя                               : \\synology\downloads\Starship.Troopers.2017.DV.mp4
Формат                                   : MPEG-4
Профиль формата                          : Base Media / Version 2
Идентификатор кодека                     : mp42 (mp42/dby1/isom)
Размер файла                             : 38,7 Гбайт
Продолжительность                        : 1 ч. 27 м.
Общий поток                              : 63,2 Мбит/сек
Дата кодирования                         : UTC 2019-09-11 18:08:41
Дата пометки                             : UTC 2019-09-11 18:08:41
Видео #1
Идентификатор                            : 1
Формат                                   : HEVC
Формат/Информация                        : High Efficiency Video Coding
Профиль формата                          : Main 10@L5.1@High
HDR_Format/String                        : SMPTE ST 2086, HDR10 compatible
Идентификатор кодека                     : hev1
Идентификатор кодека/Информация          : High Efficiency Video Coding
Продолжительность                        : 1 ч. 27 м.
Битрейт                                  : 62,4 Мбит/сек
Ширина                                   : 3840 пикселей
Высота                                   : 2160 пикселей
Соотношение сторон                       : 16:9
Режим частоты кадров                     : Постоянный
Частота кадров                           : 23,976 (24000/1001) кадра/сек
Цветовое пространство                    : YUV
Субдискретизация насыщенности            : 4:2:0 (Type 2)
Битовая глубина                          : 10 бит
Бит/(Пиксели*Кадры)                      : 0.314
Размер потока                            : 38,3 Гбайт (99%)
Default                                  : Нет
Дата кодирования                         : UTC 2019-09-11 18:08:41
Дата пометки                             : UTC 2019-09-11 18:08:41
Цветовой диапазон                        : Limited
Основные цвета                           : BT.2020
Характеристики трансфера                 : PQ
Коэффициенты матрицы                     : BT.2020 non-constant
MasteringDisplay_ColorPrimaries          : Display P3
MasteringDisplay_Luminance               : min: 0.0050 cd/m2, max: 4000 cd/m2
MaxCLL                                   : 9978 cd/m2
MaxFALL                                  : 533 cd/m2
Codec configuration box                  : hvcC
Видео #2
Идентификатор                            : 2
Формат                                   : HEVC
Формат/Информация                        : High Efficiency Video Coding
Профиль формата                          : Main 10@L5.1@High
HDR_Format/String                        : Dolby Vision, Version 1.0, dvhe.07.06, EL+RPU / SMPTE ST 2086, HDR10 compatible
Идентификатор кодека                     : dvhe
Идентификатор кодека/Информация          : High Efficiency Video Coding with Dolby Vision
Продолжительность                        : 1 ч. 27 м.
Битрейт                                  : 123 Кбит/сек
Ширина                                   : 1920 пикселей
Высота                                   : 1080 пикселей
Соотношение сторон                       : 16:9
Режим частоты кадров                     : Постоянный
Частота кадров                           : 23,976 (24000/1001) кадра/сек
Цветовое пространство                    : YUV
Субдискретизация насыщенности            : 4:2:0 (Type 2)
Битовая глубина                          : 10 бит
Бит/(Пиксели*Кадры)                      : 0.002
Размер потока                            : 76,9 Мбайт (0%)
Default                                  : Нет
Дата кодирования                         : UTC 2019-09-11 18:08:41
Дата пометки                             : UTC 2019-09-11 18:08:41
Цветовой диапазон                        : Limited
Основные цвета                           : BT.2020
Характеристики трансфера                 : PQ
Коэффициенты матрицы                     : BT.2020 non-constant
MasteringDisplay_ColorPrimaries          : Display P3
MasteringDisplay_Luminance               : min: 0.0050 cd/m2, max: 4000 cd/m2
Codec configuration box                  : hvcC+dvcC
Аудио
Идентификатор                            : 3
Формат                                   : AC-3
Формат/Информация                        : Audio Coding 3
Коммерческое название                    : Dolby Digital
Идентификатор кодека                     : ac-3
Продолжительность                        : 1 ч. 27 м.
Вид битрейта                             : Постоянный
Битрейт                                  : 640 Кбит/сек
Каналы                                   : 6 каналов
ChannelLayout                            : L R C LFE Ls Rs
Частота                                  : 48,0 КГц
Частота кадров                           : 31,250 кадров/сек (1536 SPF)
Битовая глубина                          : 16 бит
Метод сжатия                             : С потерями
Размер потока                            : 402 Мбайт (1%)
Язык                                     : Russian
ServiceKind/String                       : Complete Main
Default                                  : Нет
Дата кодирования                         : UTC 2019-09-11 18:08:41
Дата пометки                             : UTC 2019-09-11 18:08:41

Скриншоты

[Цитировать]



Показать сообщения:    

Текущее время: 06-Дек 01:42

Часовой пояс: UTC + 6


Вы не можете начинать темы
Вы не можете отвечать на сообщения
Вы не можете редактировать свои сообщения
Вы не можете удалять свои сообщения
Вы не можете голосовать в опросах
Вы не можете прикреплять файлы к сообщениям
Вы не можете скачивать файлы

!ВНИМАНИЕ!
Сайт не предоставляет электронные версии произведений, а занимается лишь коллекционированием и каталогизацией ссылок, присылаемых и публикуемых на форуме нашими читателями. Если вы являетесь правообладателем какого-либо представленного материала и не желаете, чтобы ссылка на него находилась в нашем каталоге, свяжитесь с нами, и мы незамедлительно удалим ее. Файлы для обмена на трекере предоставлены пользователями сайта, и администрация не несет ответственности за их содержание. Просьба не заливать файлы, защищенные авторскими правами, а также файлы нелегального содержания!