***Уважаемые пользователи и гости !!! Сайт переехал на новый домен Torrents-club.net. Просьба изменить ваши закладки! ***
 
[ Сегодня идет свободное скачивание без начисления Download ]


Статистика раздачи
Нет
 
   
 
 
 
Геннадий ГладковМузыка из кинофильмаЧеловек с бульвара Капуцинов Жанр: Score, soundtrack
Год выпуска диска: 2001
Производитель диска: Pоссия
Аудио кодек: FLAC
Тип рипа: image+.cue
Битрейт аудио: lossless
Продолжительность: 39:38
Трэклист:
01. Всё прекрасно - Лариса Долина (02:32)
02. Далека дорога твоя - М. Боярский (4:16)
03. Дилижанс - Оркестр Госкино СССР (02:19)
04. Люблю ковбоя - Лариса Долина (4:06)
05. Бой с индейцами - Оркестр Госкино СССР (3:55)
06. Волшебный луч - Лариса Долина (3:35)
07. Синема - А. Миронов (4:03)
08. Прогулка в прериях - Оркестр Госкино СССР (1:25)
09. Диана у кинопроектора - Лариса Долина (3:37)
10. Прелюдия - Оркестр Госкино СССР (01:06)
11. Была не была - М. Боярский (03:09)
12. Пастораль - Оркестр Госкино СССР (02:38)
13. Всё кончено - М. Боярский, Л. Долина, А. Миронов (02:57)

Текст песен: Ю.Ким
Исполнители: Л.Долина, М.Боярский, А.Миронов, Оркестр Госкино СССР

Log

Exact Audio Copy V0.99 prebeta 3 from 28. July 2007
Отчёт EAC об извлечении, выполненном 20. января 2008, 19:14
Геннадий Гладков / Человек с бульвара Капуцинов
Дисковод: PIONEER DVD-RW DVR-110D Adapter: 1 ID: 0
Режим чтения : Достоверность
Использование точного потока : Да
Отключение кэша аудио : Да
Использование указателей C2 : Нет
Коррекция смещения при чтении : 48
Способность читать области Lead-in и Lead-out : Нет
Заполнение пропущенных сэмплов тишиной : Да
Удаление блоков с тишиной в начале и конце : Нет
При вычислениях CRC использовались нулевые сэмплы : Да
Интерфейс : Встроенный Win32-интерфейс для Win NT/2000
Выходной формат : Внутренние WAV-операции
Формат сэмплов : 44.100 Гц; 16 бит; стерео
TOC извлечённого CD
Трек | Старт | Длительность | Начальный сектор | Конечный сектор
---------------------------------------------------------------------
1 | 0:00.01 | 2:32.32 | 1 | 11432
2 | 2:32.33 | 4:16.33 | 11433 | 30665
3 | 6:48.66 | 2:18.31 | 30666 | 41046
4 | 9:07.22 | 4:06.51 | 41047 | 59547
5 | 13:13.73 | 3:54.13 | 59548 | 77110
6 | 17:08.11 | 3:35.38 | 77111 | 93273
7 | 20:43.49 | 4:02.39 | 93274 | 111462
8 | 24:46.13 | 1:25.52 | 111463 | 117889
9 | 26:11.65 | 3:36.40 | 117890 | 134129
10 | 29:48.30 | 1:06.26 | 134130 | 139105
11 | 30:54.56 | 3:08.38 | 139106 | 153243
12 | 34:03.19 | 2:38.06 | 153244 | 165099
13 | 36:41.25 | 2:56.38 | 165100 | 178337
Характеристики диапазона извлечения и сообщения об ошибках
Выбранный диапазон
Имя файла D:\WORK\Геннадий Гладков - Человек с бульвара Капуцинов.wav
Пиковый уровень 84.3 %
Качество диапазона 100.0 %
CRC копии B4A0C8C4
Копирование... OK
Ошибок не произошло
Конец отчёта

Cue

REM GENRE Soundtrack
REM DATE 2001
REM DISCID A409490D
REM COMMENT "ExactAudioCopy v0.99pb3"
PERFORMER "Геннадий Гладков"
TITLE "Человек с бульвара Капуцинов"
FILE "Геннадий Гладков - Человек с бульвара Капуцинов.flac" WAVE
TRACK 01 AUDIO
TITLE "Всё прекрасно"
PERFORMER "Геннадий Гладков"
INDEX 00 00:00:00
INDEX 01 00:00:01
TRACK 02 AUDIO
TITLE "Далека дорога твоя"
PERFORMER "Геннадий Гладков"
INDEX 01 02:32:33
TRACK 03 AUDIO
TITLE "Дилижанс"
PERFORMER "Геннадий Гладков"
INDEX 01 06:48:66
TRACK 04 AUDIO
TITLE "Люблю ковбоя"
PERFORMER "Геннадий Гладков"
INDEX 01 09:07:22
TRACK 05 AUDIO
TITLE "Бой с индейцами"
PERFORMER "Геннадий Гладков"
INDEX 01 13:13:73
TRACK 06 AUDIO
TITLE "Волшебный луч"
PERFORMER "Геннадий Гладков"
INDEX 01 17:08:11
TRACK 07 AUDIO
TITLE "Синема"
PERFORMER "Геннадий Гладков"
INDEX 01 20:43:49
TRACK 08 AUDIO
TITLE "Прогулка в прериях"
PERFORMER "Геннадий Гладков"
INDEX 01 24:46:13
TRACK 09 AUDIO
TITLE "Диана у кинопроектора"
PERFORMER "Геннадий Гладков"
INDEX 01 26:11:65
TRACK 10 AUDIO
TITLE "Прелюдия"
PERFORMER "Геннадий Гладков"
INDEX 01 29:48:30
TRACK 11 AUDIO
TITLE "Была не была"
PERFORMER "Геннадий Гладков"
INDEX 01 30:54:56
TRACK 12 AUDIO
TITLE "Пастораль"
PERFORMER "Геннадий Гладков"
INDEX 01 34:03:19
TRACK 13 AUDIO
TITLE "Всё кончено"
PERFORMER "Геннадий Гладков"
INDEX 01 36:41:25

audiochecker.log

AUDIOCHECKER v2.0 beta (build 457) - by Dester - opdester@freemail.hu
~~~~~~~~~~~~~~~~~~~~~~~~~~~~~~~~~~
-=== DO NOT EDIT THIS FILE! ===-
Path: ...\Человек с бульвара Капуцинов WAV
1 -=- Геннадий Гладков - Человек с бульвара Капуцинов.wav -=- CDDA (100%)
33770324

[Цитировать]



Показать сообщения:    

Текущее время: 06-Дек 11:33

Часовой пояс: UTC + 6


Вы не можете начинать темы
Вы не можете отвечать на сообщения
Вы не можете редактировать свои сообщения
Вы не можете удалять свои сообщения
Вы не можете голосовать в опросах
Вы не можете прикреплять файлы к сообщениям
Вы не можете скачивать файлы

!ВНИМАНИЕ!
Сайт не предоставляет электронные версии произведений, а занимается лишь коллекционированием и каталогизацией ссылок, присылаемых и публикуемых на форуме нашими читателями. Если вы являетесь правообладателем какого-либо представленного материала и не желаете, чтобы ссылка на него находилась в нашем каталоге, свяжитесь с нами, и мы незамедлительно удалим ее. Файлы для обмена на трекере предоставлены пользователями сайта, и администрация не несет ответственности за их содержание. Просьба не заливать файлы, защищенные авторскими правами, а также файлы нелегального содержания!