***Уважаемые пользователи и гости !!! Сайт переехал на новый домен Torrents-club.net. Просьба изменить ваши закладки! ***
 
[ Сегодня идет свободное скачивание без начисления Download ]


Статистика раздачи
Нет
 
   
 
 
 
Бумер - саундтрек к фильму (полная версия)

Жанр: Soundtrack
Год выпуска диска: 2003
Производитель диска: Россия
Аудио кодек: FLAC
Тип рипа: image+.cue
Битрейт аудио: lossless
Продолжительность: 79:58
Трэклист:
01. Шпана (Диман)
02. Никого не жалко (Сергей Шнуров)
03. Клон (Слот)
04. Ангел (Сергей Шнуров)
05. Зимы не будет (Леонид Фёдоров)
06. Микс Малера (Snoop Жаба Жаб)
07. Жопа (Сергей Шнуров)
08. Мама мне говорит (Диоды)
09. Купи мне это... (Света Колiбаба)
10. 1000000 USD (Запрещённые барабанщики)
11. Мама, наливай (Сергей Шнуров)
12. Groove of the Nation (Second Hand Band)
13. Мобильник (Сергей Шнуров)
14. Только бы прикалывало (Слот)
15. Швейцарские бароны (Я и друг мой грузовик)
16. Сомнение (Фёдор Шаляпин)
17. Тема дороги (Сергей Шнуров)
18. Девок сняли (Snoop Жаба Жаб)
19. Тема финала (Сергей Шнуров)
20. Под Луганском родился (Ботаника)
21. Мобильник (remix) (Command Com)
22. Никого не жалко (радиоверсия) (Сергей Шнуров)
23. Привет Мориконе (Сергей Шнуров)
Доп. информация:

Log

Отчёт EAC об извлечении, выполненном 9. февраля 2009, 21:21
Various / OST Бумер (полная версия)
Дисковод: LITE-ON COMBO SOHC-5236V Adapter: 1 ID: 1
Режим чтения : Достоверность
Использование точного потока : Да
Отключение кэша аудио : Да
Использование указателей C2 : Нет
Коррекция смещения при чтении : 6
Способность читать области Lead-in и Lead-out : Нет
Заполнение пропущенных сэмплов тишиной : Да
Удаление блоков с тишиной в начале и конце : Нет
При вычислениях CRC использовались нулевые сэмплы : Да
Интерфейс : Установленный внешний ASPI-интерфейс
Выходной формат : Внутренние WAV-операции
Формат сэмплов : 44.100 Гц; 16 бит; стерео
Смещение при сжатии : 0
TOC извлечённого CD
Трек | Старт | Длительность | Начальный сектор | Конечный сектор
---------------------------------------------------------------------
1 | 0:00.00 | 3:25.40 | 0 | 15414
2 | 3:25.40 | 3:22.37 | 15415 | 30601
3 | 6:48.02 | 3:41.14 | 30602 | 47190
4 | 10:29.16 | 4:48.52 | 47191 | 68842
5 | 15:17.68 | 2:42.01 | 68843 | 80993
6 | 17:59.69 | 1:32.09 | 80994 | 87902
7 | 19:32.03 | 4:13.66 | 87903 | 106943
8 | 23:45.69 | 3:16.46 | 106944 | 121689
9 | 27:02.40 | 3:58.48 | 121690 | 139587
10 | 31:01.13 | 3:52.74 | 139588 | 157061
11 | 34:54.12 | 2:34.22 | 157062 | 168633
12 | 37:28.34 | 5:13.03 | 168634 | 192111
13 | 42:41.37 | 2:48.72 | 192112 | 204783
14 | 45:30.34 | 2:42.35 | 204784 | 216968
15 | 48:12.69 | 3:01.68 | 216969 | 230611
16 | 51:14.62 | 4:37.54 | 230612 | 251440
17 | 55:52.41 | 2:51.50 | 251441 | 264315
18 | 58:44.16 | 5:54.29 | 264316 | 290894
19 | 64:38.45 | 1:22.24 | 290895 | 297068
20 | 66:00.69 | 4:24.26 | 297069 | 316894
21 | 70:25.20 | 2:54.19 | 316895 | 329963
22 | 73:19.39 | 2:53.71 | 329964 | 343009
23 | 76:13.35 | 3:45.07 | 343010 | 359891
Характеристики диапазона извлечения и сообщения об ошибках
Выбранный диапазон
Имя файла C:\Documents and Settings\User\Рабочий стол\Раздачи и прочее\OST\OST Бумер (полная версия) (2003)\Various - OST Бумер (полная версия).wav
Пиковый уровень 100.0 %
Качество диапазона 99.9 %
CRC копии 67E47267
Копирование... OK
Ошибок не произошло
AccurateRip: сводка
Трек 1 нет в базе данных
Трек 2 нет в базе данных
Трек 3 нет в базе данных
Трек 4 нет в базе данных
Трек 5 нет в базе данных
Трек 6 нет в базе данных
Трек 7 нет в базе данных
Трек 8 нет в базе данных
Трек 9 нет в базе данных
Трек 10 нет в базе данных
Трек 11 нет в базе данных
Трек 12 нет в базе данных
Трек 13 нет в базе данных
Трек 14 нет в базе данных
Трек 15 нет в базе данных
Трек 16 нет в базе данных
Трек 17 нет в базе данных
Трек 18 нет в базе данных
Трек 19 нет в базе данных
Трек 20 нет в базе данных
Трек 21 нет в базе данных
Трек 22 нет в базе данных
Трек 23 нет в базе данных
Ни одного трека нет в базе AccurateRip
Конец отчёта

Tau Analyzer




[Цитировать]



Показать сообщения:    

Текущее время: 08-Дек 13:47

Часовой пояс: UTC + 6


Вы не можете начинать темы
Вы не можете отвечать на сообщения
Вы не можете редактировать свои сообщения
Вы не можете удалять свои сообщения
Вы не можете голосовать в опросах
Вы не можете прикреплять файлы к сообщениям
Вы не можете скачивать файлы

!ВНИМАНИЕ!
Сайт не предоставляет электронные версии произведений, а занимается лишь коллекционированием и каталогизацией ссылок, присылаемых и публикуемых на форуме нашими читателями. Если вы являетесь правообладателем какого-либо представленного материала и не желаете, чтобы ссылка на него находилась в нашем каталоге, свяжитесь с нами, и мы незамедлительно удалим ее. Файлы для обмена на трекере предоставлены пользователями сайта, и администрация не несет ответственности за их содержание. Просьба не заливать файлы, защищенные авторскими правами, а также файлы нелегального содержания!