***Уважаемые пользователи и гости !!! Сайт переехал на новый домен Torrents-club.net. Просьба изменить ваши закладки! ***
 
[ Сегодня идет свободное скачивание без начисления Download ]


Статистика раздачи
Нет
 
   
 
 
 
Жизнь онлайн
Netojuu no Susume / Recovery of an MMO Junkie
- Информация
Жанр: комедия, фэнтези
Тип: TV-сериал
Продолжительность: 10 эпизодов и спэшл по 25 минут
Выпуск: c 07.10.2017 по 08.12.2017
Автор: Кокуё Рин
Режиссер: Ягинума Кадзуёси
Производство: Signal MD-Информационные ссылки: AniDB || World Art || MAL || ANN-Релиз подготовлен студией Студийная банда
Тип озвучки: Многоголосая, закадровая
Описание:
О чём может мечтать успешная тридцатилетняя женщина, у которой есть работа, но нет молодого человека? О замужестве, скажете вы, и будете абсолютно неправы. Больше всего на свете наша героиня Морико Мориока мечтает стать задроткой и погрузиться с головой в виртуальный мир, да так, чтобы не вылезать из него вовсе! И вот, наконец, у Морико появляется шанс исполнить свою мечту. Она увольняется из компании, в которой проработала энное время, и пускается навстречу сетевым приключениям.
В игре Морико притворилась парнем и познакомилась с очаровательной девушкой Лили. Новая знакомая заставляла сердце Морико трепетать, и она всеми правдами и неправдами старалась лишний раз пересечься с ней. На фоне этой романтической истории, в реальной жизни Морико встречает красавца Юту Сакурая. Она увлекается им, но в игре ведь её ожидает Лили! Удастся ли Морико соблюдать этот сложный баланс между виртуальным и реальным миром? Или же ей придётся сделать свой выбор между своей давней мечтой и соблазнительным блондином?

Качество: HDTVRip | Энкод: Leopard-Raws
Язык озвучки: Японский и Русский
Файл
Формат: MKV
Видео: x264, 1280x720, ~1 857 kbps, 23.976 fps
Аудио: AAC, 162 kbps, 48.0 kHz, 2 ch RUS
Аудио: AAC, 192 kbps, 48.0 kHz, 2 ch JPN

Список эпизодов:

01. Female IRL, Male Online
02. We Don`t Know a Thing
03. You and I, the Cowards
04. Like a Maiden in Love
05. Secret Triangle
06. I`m So Embarrassed I Could Die!
07. You and I, and Me and You
08. One Step Forward
09. I Call That Feeling Marble
10. On a Moonlit Evening
SP 1. Recovery of an MMO Junkie

MediaInfo:

General
Unique ID : 231274826968670838639594988957053030609 (0xADFDE955B7A8A102AF718DA286C910D1)
Complete name : Netojuu no Susume [StudioBand]\[StudioBand] Netojuu no Susume - 01 [720p].mkv
Format : Matroska
Format version : Version 4 / Version 2
File size : 380 MiB
Duration : 24 min 5 s
Overall bit rate : 2 206 kb/s
Encoded date : UTC 2017-10-14 15:06:21
Writing application : mkvmerge v16.0.0 ('Protest') 64-bit
Writing library : libebml v1.3.5 + libmatroska v1.4.8
Video
ID : 1
Format : AVC
Format/Info : Advanced Video Codec
Format profile : High@L4.1
Format settings : CABAC / 4 Ref Frames
Format settings, CABAC : Yes
Format settings, RefFrames : 4 frames
Codec ID : V_MPEG4/ISO/AVC
Duration : 23 min 59 s
Bit rate : 1 857 kb/s
Width : 1 280 pixels
Height : 720 pixels
Display aspect ratio : 16:9
Frame rate mode : Constant
Frame rate : 23.976 (24000/1001) FPS
Color space : YUV
Chroma subsampling : 4:2:0
Bit depth : 8 bits
Scan type : Progressive
Bits/(Pixel*Frame) : 0.084
Stream size : 319 MiB (84%)
Writing library : x264 core 129 r2245+729M 1a52e03
Encoding settings : cabac=1 / ref=4 / deblock=1:1:-1 / analyse=0x3:0x113 / me=umh / subme=9 / psy=1 / fade_compensate=0.00 / psy_rd=1.00:0.00 / mixed_ref=1 / me_range=24 / chroma_me=1 / trellis=2 / 8x8dct=1 / cqm=0 / deadzone=21,11 / fast_pskip=1 / chroma_qp_offset=-2 / threads=8 / lookahead_threads=1 / sliced_threads=0 / nr=0 / decimate=1 / interlaced=0 / bluray_compat=0 / constrained_intra=0 / fgo=0 / bframes=9 / b_pyramid=2 / b_adapt=2 / b_bias=0 / direct=1 / weightb=1 / open_gop=0 / weightp=2 / keyint=240 / keyint_min=24 / scenecut=40 / intra_refresh=0 / rc=crf / mbtree=0 / crf=18.5 / qcomp=0.72 / qpmin=0 / qpmax=69 / qpstep=4 / ip_ratio=1.40 / pb_ratio=1.30 / aq=1:0.85
Language : Japanese
Default : Yes
Forced : No
Color range : Limited
Color primaries : BT.709
Transfer characteristics : BT.709
Matrix coefficients : BT.709
Audio #1
ID : 2
Format : AAC
Format/Info : Advanced Audio Codec
Format profile : LC
Codec ID : A_AAC-2
Duration : 24 min 5 s
Bit rate : 162 kb/s
Channel(s) : 2 channels
Channel positions : Front: L R
Sampling rate : 48.0 kHz
Frame rate : 46.875 FPS (1024 SPF)
Compression mode : Lossy
Stream size : 27.9 MiB (7%)
Language : Russian
Default : Yes
Forced : No
Audio #2
ID : 3
Format : AAC
Format/Info : Advanced Audio Codec
Format profile : LC
Codec ID : A_AAC-2
Duration : 23 min 59 s
Bit rate : 192 kb/s
Channel(s) : 2 channels
Channel positions : Front: L R
Sampling rate : 48.0 kHz
Frame rate : 46.875 FPS (1024 SPF)
Compression mode : Lossy
Stream size : 32.9 MiB (9%)
Language : Japanese
Default : No
Forced : No

Скриншоты



Последний раз редактировалось: ketonal150 (2017-12-21 23:21), всего редактировалось 1 раз

[Цитировать]

Кто прячется за милой аватаркой? Хорошее аниме, для "больших" пользователей интернета.

[Цитировать]

Торрент перезалит, добавлен спешл.

[Цитировать]



Показать сообщения:    

Текущее время: 13-Дек 10:55

Часовой пояс: UTC + 6


Вы не можете начинать темы
Вы не можете отвечать на сообщения
Вы не можете редактировать свои сообщения
Вы не можете удалять свои сообщения
Вы не можете голосовать в опросах
Вы не можете прикреплять файлы к сообщениям
Вы не можете скачивать файлы

!ВНИМАНИЕ!
Сайт не предоставляет электронные версии произведений, а занимается лишь коллекционированием и каталогизацией ссылок, присылаемых и публикуемых на форуме нашими читателями. Если вы являетесь правообладателем какого-либо представленного материала и не желаете, чтобы ссылка на него находилась в нашем каталоге, свяжитесь с нами, и мы незамедлительно удалим ее. Файлы для обмена на трекере предоставлены пользователями сайта, и администрация не несет ответственности за их содержание. Просьба не заливать файлы, защищенные авторскими правами, а также файлы нелегального содержания!