***Уважаемые пользователи и гости !!! Сайт переехал на новый домен Torrents-club.net. Просьба изменить ваши закладки! ***
 
[ Сегодня идет свободное скачивание без начисления Download ]


Статистика раздачи
Нет
 
   
 
 
 
 
Время первых (2017) BDRip-HEVC | 60 fps
«Подними голову!»
Год выпуска: 2017
Страна: Россия
Производство: Базелевс Продакшн, CGF, Третий Рим
Жанр: Приключения, триллер
Продолжительность: 02:17:17
Режиссёр: Дмитрий Киселёв
В ролях: Евгений Миронов, Константин Хабенский, Владимир Ильин, Анатолий Котенёв, Александра Урсуляк, Елена Панова, Александр Новин, Марта Тимофеева, Геннадий Смирнов, Юрий Нифонтов
Перевод: Не требуется
Субтитры: Русские (forced, full), Немецкие (forced, full)
Описание: 60-е. Разгар холодной войны. Две супердержавы, СССР и США бьются за первенство в космической гонке. Пока СССР впереди, на очереди — выход человека в открытый космос.
За две недели до старта взрывается тестовый корабль. Времени на выявление причин нет. И пусть риски огромны, мы не можем уступить лидерство.
Опытный военный летчик Павел Беляев и его напарник Алексей Леонов, необстрелянный и горячий, мечтающий о подвиге, — два человека, готовые шагнуть в неизвестность. Но никто не мог даже предположить всего, с чем им предстояло столкнуться в полете. В этой миссии все, что только можно, пошло не так…

Формат: MKV
Качество: BDRip-HEVC 720р / 60 FPS
Видео кодек: HEVC
Аудио кодек: DTS
Видео: 1280x544 (2.35:1), 59.940 fps, AVC ~ 4 499 kbps avg, 0.108 bit/pixel
Аудио: DTS, 48 kHz, 6 ch, ~ 1509 kbps avg
Дата премьеры (мир): 6 апреля 2017
Дата премьеры (РФ): 6 апреля 2017, «Bazelevs Distribution»

MI

General
Unique ID : 210309739955501830824833775279616827425 (0x9E382EBD68D3F6B3AE3B3DA7E5B02021)
Complete name : D:\Торренты\Время первых HEVC BDRip 720p 60fps.mkv
Format : Matroska
Format version : Version 4 / Version 2
File size : 5.76 GiB
Duration : 2 h 17 min
Overall bit rate : 6 010 kb/s
Movie name : Время первых / Spacewalker (2017) by TIberiumsun69
Encoded date : UTC 2017-12-31 12:31:20
Writing application : mkvmerge v18.0.0 ('Apricity') 64-bit
Writing library : libebml v1.3.5 + libmatroska v1.4.8
Video
ID : 1
Format : HEVC
Format/Info : High Efficiency Video Coding
Format profile : Main 10@L4@Main
Codec ID : V_MPEGH/ISO/HEVC
Duration : 2 h 17 min
Bit rate : 4 499 kb/s
Width : 1 280 pixels
Height : 544 pixels
Display aspect ratio : 2.35:1
Frame rate mode : Constant
Frame rate : 59.940 (60000/1001) FPS
Color space : YUV
Chroma subsampling : 4:2:0
Bit depth : 10 bits
Bits/(Pixel*Frame) : 0.108
Stream size : 4.31 GiB (75%)
Language : English
Default : Yes
Forced : No
Color range : Full
Color primaries : BT.601 NTSC
Transfer characteristics : BT.601
Matrix coefficients : BT.601
Audio
ID : 2
Format : DTS
Format/Info : Digital Theater Systems
Codec ID : A_DTS
Duration : 2 h 16 min
Bit rate mode : Constant
Bit rate : 1 510 kb/s
Channel(s) : 6 channels
Channel positions : Front: L C R, Side: L R, LFE
Sampling rate : 48.0 kHz
Frame rate : 93.750 FPS (512 SPF)
Bit depth : 24 bits
Compression mode : Lossy
Stream size : 1.44 GiB (25%)
Language : Russian
Default : Yes
Forced : No
Text #1
ID : 3
Format : UTF-8
Codec ID : S_TEXT/UTF8
Codec ID/Info : UTF-8 Plain Text
Duration : 2 h 10 min
Bit rate : 0 b/s
Count of elements : 25
Stream size : 502 Bytes (0%)
Title : forced
Language : Russian
Default : No
Forced : No
Text #2
ID : 4
Format : UTF-8
Codec ID : S_TEXT/UTF8
Codec ID/Info : UTF-8 Plain Text
Duration : 2 h 10 min
Bit rate : 79 b/s
Count of elements : 1545
Stream size : 75.8 KiB (0%)
Title : full by Nautay
Language : Russian
Default : No
Forced : No
Text #3
ID : 5
Format : UTF-8
Codec ID : S_TEXT/UTF8
Codec ID/Info : UTF-8 Plain Text
Duration : 2 h 10 min
Bit rate : 0 b/s
Count of elements : 25
Stream size : 488 Bytes (0%)
Title : forced
Language : German
Default : No
Forced : No
Text #4
ID : 6
Format : UTF-8
Codec ID : S_TEXT/UTF8
Codec ID/Info : UTF-8 Plain Text
Duration : 2 h 10 min
Bit rate : 53 b/s
Count of elements : 1543
Stream size : 51.6 KiB (0%)
Title : full
Language : German
Default : No
Forced : No
Menu
00:00:00.000 : en:Chapter01
00:09:43.249 : en:Chapter02
00:18:49.169 : en:Chapter03
00:30:08.056 : en:Chapter04
00:41:19.894 : en:Chapter05
00:51:33.924 : en:Chapter06
01:00:20.783 : en:Chapter07
01:09:47.308 : en:Chapter08
01:18:29.538 : en:Chapter09
01:30:06.901 : en:Chapter10
01:39:16.158 : en:Chapter11
01:49:17.175 : en:Chapter12
02:00:26.469 : en:Chapter13
02:11:54.740 : en:Chapter14

[Цитировать]



Показать сообщения:    

Текущее время: 15-Ноя 16:15

Часовой пояс: UTC + 6


Вы не можете начинать темы
Вы не можете отвечать на сообщения
Вы не можете редактировать свои сообщения
Вы не можете удалять свои сообщения
Вы не можете голосовать в опросах
Вы не можете прикреплять файлы к сообщениям
Вы не можете скачивать файлы

!ВНИМАНИЕ!
Сайт не предоставляет электронные версии произведений, а занимается лишь коллекционированием и каталогизацией ссылок, присылаемых и публикуемых на форуме нашими читателями. Если вы являетесь правообладателем какого-либо представленного материала и не желаете, чтобы ссылка на него находилась в нашем каталоге, свяжитесь с нами, и мы незамедлительно удалим ее. Файлы для обмена на трекере предоставлены пользователями сайта, и администрация не несет ответственности за их содержание. Просьба не заливать файлы, защищенные авторскими правами, а также файлы нелегального содержания!