***Уважаемые пользователи и гости !!! Сайт переехал на новый домен Torrents-club.net. Просьба изменить ваши закладки! ***
 
[ Сегодня идет свободное скачивание без начисления Download ]


Статистика раздачи
Скачал: [ 2 ]
 
   
 
 
 
 
Моя первая гяру
はじめてのギャル | Hajimete no Gal | My First Girlfriend Is a Gal
- Информация
Тип: TV
Жанр: комедия, романтика, этти
Продолжительность: 11 эпизодов по ~ 25 минут
Количество серий: 10 из 10 + 1 OVA
Дата выпуска: 12.07.2017 по 13.09.2017
Производство: NAZ
Автор оригинала: Уэно Мэгуру
Снято по манге: Hajimete no Gal
Режиссер: Фурукава Хироюки
Ссылки: World-Art, Ani-DB, Официальный сайт, ANN, MAL, Сетка вещания
Описание:
Аниме Hajimete no Gal («Первая гяру») рассказывает про старшеклассника Дзюничи «Дзюна» Хащибу, который мечтает поскорее расстаться с девственностью, но он абсолютно непопулярен у девушек. Подстрекаемый друзьями, он встаёт на колени и признаётся в любви однокласснице Юкане Ямэ, моднице и поклоннице стиля «гяру», и та неожиданно для него отвечает взаимностью. Однако даже после признания всё идёт далеко не по плану Дзюничи…
Язык озвучки: Русский
TV-1 (Anilibria), (Animedia), (AniPlay), (AniStar), (JWA Project), (SHIZA Project), (StudioBand) - внешними файлами
Язык субтитров: Русский
Перевод: (Aiso), (ANderground team), (AniPlay), (Crunchyroll); в надписи добавлен эндинг
Файл
Качество видео: BDrip, 10-bit
Видео: AVC (High10@L4.1), 1920x1080 (16:9), ~23.976 fps, ~9.5 Mbps
Аудио 1: FLAC, 48.0 KHz, ~1500 kbps, 2 ch (Японский, студия NAZ)
Аудио 2: FLAC, 48.0 KHz, ~1500 kbps, 2 ch (Японский (комментарии), студия NAZ)
Аудио 3: AC3, 48.0 KHz, 192 kbps, 2 ch (внешние) (Русский, Anilibria)
Аудио 4: AC3, 48.0 KHz, 192 kbps, 2 ch (внешние) (Русский, Animedia)
Аудио 5: AC3, 48.0 KHz, 192 kbps, 2 ch (внешние) (Русский, AniPlay)
Аудио 6: AC3, 48.0 KHz, 192 kbps, 2 ch (внешние) (Русский, AniStar)
Аудио 7: AC3, 48.0 KHz, 192 kbps, 2 ch (внешние) (Русский, JWA Project)
Аудио 8: AC3, 48.0 KHz, 192 kbps, 2 ch (внешние) (Русский, SHIZA Project)
Аудио 9: AC3, 48.0 KHz, 192 kbps, 2 ch (внешние) (Русский, StudioBand)

Скриншоты

Скриншоты:

Дополнительные скриншоты:

Эпизоды:

01. My First Time Begging for It
02. My First Karaoke
03. My First Spray-On Gal
04. My First Serious Gal
05. My First Half-Assed Gal
06. My First Time at Yame-san`s House
07. My First Job
08. My First Trip
09. My First Fight
10. My First Confession
11. OVA

Дополнительная информация:

в бонусных СД - для любителей шепчунов/скрежетов есть контент)

СаундТреки:

2017 - ED - GAL teki LOVE
2017 - OP - Hajimete no SEASON
2017 - Original Soundtrack

Mediainfo:

General
Complete name : H:\Downloads6\Hajimete no Gal [TV-1] [BDRip] [1080p] [RUS + JAP]\Hajimete no Gal 02 (BDRip 1920x1080 x264 hi10p FLAC Rus + Jap).mkv
Format : Matroska
Format version : Version 4 / Version 2
File size : 2.07 GiB
Duration : 23 min 40 s
Overall bit rate mode : Variable
Overall bit rate : 12.5 Mb/s
Encoded date : UTC 2018-02-18 13:46:52
Writing application : mkvmerge v18.0.0 ('Apricity') 64-bit
Writing library : libebml v1.3.5 + libmatroska v1.4.8
Video
ID : 1
Format : AVC
Format/Info : Advanced Video Codec
Format profile : High 10@L4.1
Format settings : CABAC / 4 Ref Frames
Format settings, CABAC : Yes
Format settings, RefFrames : 4 frames
Codec ID : V_MPEG4/ISO/AVC
Duration : 23 min 40 s
Bit rate mode : Variable
Bit rate : 9 474 kb/s
Maximum bit rate : 150 Mb/s
Width : 1 920 pixels
Height : 1 080 pixels
Display aspect ratio : 16:9
Frame rate mode : Constant
Frame rate : 23.976 (24000/1001) FPS
Color space : YUV
Chroma subsampling : 4:2:0
Bit depth : 10 bits
Scan type : Progressive
Bits/(Pixel*Frame) : 0.191
Stream size : 1.57 GiB (76%)
Writing library : x264 core 155 r2893 b00bcaf [L-SMASH]
Encoding settings : cabac=1 / ref=4 / deblock=1:0:0 / analyse=0x3:0x133 / me=esa / subme=9 / psy=1 / psy_rd=2.00:0.00 / mixed_ref=1 / me_range=24 / chroma_me=1 / trellis=2 / 8x8dct=1 / cqm=0 / deadzone=21,11 / fast_pskip=0 / chroma_qp_offset=-2 / threads=30 / lookahead_threads=1 / sliced_threads=0 / nr=0 / decimate=0 / interlaced=0 / bluray_compat=0 / constrained_intra=0 / bframes=3 / b_pyramid=2 / b_adapt=2 / b_bias=0 / direct=3 / weightb=1 / open_gop=0 / weightp=2 / keyint=250 / keyint_min=4 / scenecut=40 / intra_refresh=0 / rc_lookahead=60 / rc=crf / mbtree=1 / crf=15.5 / qcomp=0.60 / qpmin=0 / qpmax=81 / qpstep=4 / vbv_maxrate=150000 / vbv_bufsize=150000 / crf_max=0.0 / nal_hrd=vbr / filler=0 / ip_ratio=1.40 / aq=1:1.00
Default : Yes
Forced : No
Color range : Limited
Color primaries : BT.709
Transfer characteristics : BT.709
Matrix coefficients : BT.709
Audio #1
ID : 2
Format : FLAC
Format/Info : Free Lossless Audio Codec
Codec ID : A_FLAC
Duration : 23 min 40 s
Bit rate mode : Variable
Bit rate : 1 529 kb/s
Channel(s) : 2 channels
Channel positions : Front: L R
Sampling rate : 48.0 kHz
Frame rate : 11.719 FPS (4096 SPF)
Bit depth : 24 bits
Stream size : 259 MiB (12%)
Writing library : libFLAC 1.3.1 (UTC 2014-11-25)
Language : Japanese
Default : Yes
Forced : No
Audio #2
ID : 3
Format : FLAC
Format/Info : Free Lossless Audio Codec
Codec ID : A_FLAC
Duration : 23 min 40 s
Bit rate mode : Variable
Bit rate : 1 495 kb/s
Channel(s) : 2 channels
Channel positions : Front: L R
Sampling rate : 48.0 kHz
Frame rate : 11.719 FPS (4096 SPF)
Bit depth : 24 bits
Stream size : 253 MiB (12%)
Title : seyu comments
Writing library : libFLAC 1.3.1 (UTC 2014-11-25)
Language : Japanese
Default : No
Forced : No
Menu
00:00:00.000 : en:1
00:01:58.035 : en:опенинг
00:03:27.999 : en:3
00:10:14.989 : en:4
00:21:54.980 : en:эндинг
00:23:24.987 : en:6

[Цитировать]

Торрент обновлен.

[Цитировать]



Показать сообщения:    

Текущее время: 09-Дек 17:19

Часовой пояс: UTC + 6


Вы не можете начинать темы
Вы не можете отвечать на сообщения
Вы не можете редактировать свои сообщения
Вы не можете удалять свои сообщения
Вы не можете голосовать в опросах
Вы не можете прикреплять файлы к сообщениям
Вы не можете скачивать файлы

!ВНИМАНИЕ!
Сайт не предоставляет электронные версии произведений, а занимается лишь коллекционированием и каталогизацией ссылок, присылаемых и публикуемых на форуме нашими читателями. Если вы являетесь правообладателем какого-либо представленного материала и не желаете, чтобы ссылка на него находилась в нашем каталоге, свяжитесь с нами, и мы незамедлительно удалим ее. Файлы для обмена на трекере предоставлены пользователями сайта, и администрация не несет ответственности за их содержание. Просьба не заливать файлы, защищенные авторскими правами, а также файлы нелегального содержания!