***Уважаемые пользователи и гости !!! Сайт переехал на новый домен Torrents-club.net. Просьба изменить ваши закладки! ***
 
[ Сегодня идет свободное скачивание без начисления Download ]


Статистика раздачи
Нет
 
   
 
 
 
 
Судьба: Девочка-волшебница Иллия [ТВ-4]
Fate/kaleid liner Prisma Illya 3rei!!
Fate/Kaleid Liner Prisma Illya Drei!!
- Информация
Жанр: приключения, махо-сёдзё
Тип: ТВ
Продолжительность: 12 эп. по 25 мин. + 5 спешалов по 5 мин.
Выпуск: c 06.07.2016 по 21.09.2016
Производство: студия Silver Link
Автор оригинала: Хирояма Хироси
Режиссер: Онума Син
Ссылки: World-Art, ANN, AniDB, MyAnimeList, Сетка вещания
Описание:
Иллия и остальные девочки-волшебницы одержали победу над легендарным фантазмом восьмой карты. Вернувшись обратно к обыденной жизни, они собираются наверстать упущенное за летние каникулы. Но их надежды на спокойный отдых развеялись в мгновение ока.
Во время исследования аномалии на горе Эндзо, перед волшебницами неожиданно появляются два загадочных силуэта. После короткого сражения весь мир искажается. Иллия приходит в себя в снежном городе Фуюки... в параллельном мире. Это мир, где родилась и выросла Мию.

Файл
Качество видео: BDrip
Видео: AVC (High@L4), 1920x1080 (16:9), ~23.976 fps, ~11.1 Mbps
Аудио: FLAC, 2 ch, 48 kHz, 24 bit, ~1373 kbps | Звук: Японский
Тип субтитров: Отключаемые (softsub)
Язык озвучки: Японский
Субтитры: Русские
Перевод: Sovetromantica (сериал)

Скриншоты

Скриншоты:

Эпизоды

01. City Fading to Silver | Град, увядающий в серебре
02. Encounters and Reunions | Встречи и воссоединения
03. Your True Enemy | Твой истинный противник
04. For My Weak Little Sister | Ради моей беззащитной младшей сестры
05. The Little Lady Attacks | Нападение маленькой леди
06. Chilling Hostility | Гостеприимность, от которой в дрожь бросает
07. Dolls and Stuffed Animals | Куклы и плюшевые животные
08. People and Tools | Люди и инструменты
09. Illya`s Choice | Выбор Иллии
10. To the Princess`s Side | На сторону Принцессы
11. You Are Not Alone | Ты не одна
12. Woven Miracles | Сплетая чудеса

Media Info на первую серию

General
Unique ID : 207748639014551661305581277726656382092 (0x9C4AEEB6E73AAAB9B7040A9D7577448C)
Complete name : FateKaleid Liner Prisma Illya 3rei!! (BDRip 1920x1080 x264 FLAC)\[ReinForce] FateKaleid Liner Prisma Illya 3rei!! - 01 (BDRip 1920x1080 x264 FLAC).mkv
Format : Matroska
Format version : Version 4 / Version 2
File size : 2.06 GiB
Duration : 23 min 38 s
Overall bit rate mode : Variable
Overall bit rate : 12.5 Mb/s
Encoded date : UTC 2016-10-08 15:17:46
Writing application : mkvmerge v9.4.2 ('So High') 64bit
Writing library : libebml v1.3.4 + libmatroska v1.4.5
Video
ID : 1
Format : AVC
Format/Info : Advanced Video Codec
Format profile : High@L4
Format settings, CABAC : Yes
Format settings, ReFrames : 4 frames
Codec ID : V_MPEG4/ISO/AVC
Duration : 23 min 38 s
Bit rate : 11.1 Mb/s
Width : 1 920 pixels
Height : 1 080 pixels
Display aspect ratio : 16:9
Frame rate mode : Constant
Frame rate : 23.976 (24000/1001) FPS
Color space : YUV
Chroma subsampling : 4:2:0
Bit depth : 8 bits
Scan type : Progressive
Bits/(Pixel*Frame) : 0.224
Stream size : 1.84 GiB (89%)
Writing library : x264 core 148
Encoding settings : opencl=1 / cabac=1 / ref=4 / deblock=1:-2:-2 / analyse=0x3:0x113 / me=umh / subme=9 / psy=1 / psy_rd=0.70:0.00 / mixed_ref=0 / me_range=32 / chroma_me=1 / trellis=2 / 8x8dct=1 / cqm=0 / deadzone=21,11 / fast_pskip=1 / chroma_qp_offset=-2 / threads=8 / lookahead_threads=1 / sliced_threads=0 / nr=0 / decimate=1 / interlaced=0 / bluray_compat=0 / constrained_intra=0 / bframes=9 / b_pyramid=2 / b_adapt=2 / b_bias=0 / direct=3 / weightb=1 / open_gop=0 / weightp=2 / keyint=250 / keyint_min=23 / scenecut=40 / intra_refresh=0 / rc_lookahead=40 / rc=crf / mbtree=1 / crf=16.0 / qcomp=0.70 / qpmin=10 / qpmax=20 / qpstep=4 / ip_ratio=1.40 / aq=1:1.00
Default : Yes
Forced : No
Audio
ID : 2
Format : FLAC
Format/Info : Free Lossless Audio Codec
Codec ID : A_FLAC
Duration : 23 min 38 s
Bit rate mode : Variable
Bit rate : 1 373 kb/s
Channel(s) : 2 channels
Channel positions : Front: L R
Sampling rate : 48.0 kHz
Frame rate : 10.417 FPS (4608 spf)
Bit depth : 24 bits
Stream size : 232 MiB (11%)
Writing library : Lavf56.40.101
Language : Japanese
Default : Yes
Forced : No

[Цитировать]



Показать сообщения:    

Текущее время: 06-Дек 02:09

Часовой пояс: UTC + 6


Вы не можете начинать темы
Вы не можете отвечать на сообщения
Вы не можете редактировать свои сообщения
Вы не можете удалять свои сообщения
Вы не можете голосовать в опросах
Вы не можете прикреплять файлы к сообщениям
Вы не можете скачивать файлы

!ВНИМАНИЕ!
Сайт не предоставляет электронные версии произведений, а занимается лишь коллекционированием и каталогизацией ссылок, присылаемых и публикуемых на форуме нашими читателями. Если вы являетесь правообладателем какого-либо представленного материала и не желаете, чтобы ссылка на него находилась в нашем каталоге, свяжитесь с нами, и мы незамедлительно удалим ее. Файлы для обмена на трекере предоставлены пользователями сайта, и администрация не несет ответственности за их содержание. Просьба не заливать файлы, защищенные авторскими правами, а также файлы нелегального содержания!