***Уважаемые пользователи и гости !!! Сайт переехал на новый домен Torrents-club.net. Просьба изменить ваши закладки! ***
 
[ Сегодня идет свободное скачивание без начисления Download ]


Статистика раздачи
Нет
 
   
 
 
 
Императрица Ки / Ki Hwanghoo / Qi Empress
Год выпуска: 2013
Производство: Корея
Жанр: романтика, экшн, политика, драма
Продолжительность: ~ 00:58:00
Субтитры: Нет
Перевод: Любительский двухголосый - фансаб-группа Мания
Релиз группы: GREEN TEA
Работа со звуком: Ольга Гринтиева
Озвучивают: Марина Кириченко и Франк Цветков
Режиссёр: Хан Хи, Ли Сон-джун
В ролях: Ха Чжи Вон в роли Ки Сон , позднее - Императрица Ки
Чу Чжин Мо в роли Ван Ю, короля Корё
Чжи Чан Ук в роли Тогона, позже - Император Хуэйцзун
Пэк Чжин Хи в роли Танашири
Ли Вон Чон в роли Док Мана
Ким Чон Хён в роли Тан Киши
Чха До Чжи в роли Талахая
Ким Ён Хо в роли Байана
Чжин И Хан в роли Талтала
Чон Гук Хван в роли Эль-Тэмура
Ким Со Хён в роли Вдовствующей императрицы
Чхве Му Сон в роли Пак Буль Хва
Ли Мун Сик в роли Пан Сон У
Чон Ун Ин в роли Ло Бен Су
Квон О Чжун в роли Хо Му Сона
Юн Ён Хён в роли Джомбака
Ли Чжэ Ён в роли Ван Ко, короля Шэньяна
Описание: "Императрица Ки" - историческая сага с Ха Чжи Вон в роли Ки Хван Ху, которая родилась в Корее (Корё) и стала затем императрицей китайской династии Юань. Борьба с соперницей за сердце императора и борьба двух правителей за сердце героини - любовные треугольники в этой истории масштабны и преисполнены политики. Дорама раскроет неизвестные стороны мудрой правительницы Ки, показав ее сквозь призму красивых и болезненных историй любви.
Качество видео: HDTVRip
Формат: AVI
Видео: XviD; H264; 1280x720, 3000 Кбит/с, 29.970 fps
Аудио: Русский; MP3; 48 kHz, 192 Кбит/с, 2 канала

MediaInfo:

General
Complete name : D:\Video\[GREEN TEA] Императрица Ки\[GREEN TEA] Императрица Ки 08.avi
Format : AVI
Format/Info : Audio Video Interleave
File size : 1.33 GiB
Duration : 59 min 8 s
Overall bit rate : 3 227 kb/s
Writing application : VirtualDubMod 1.5.10.2 (build 2540/release)
Writing library : VirtualDubMod build 2540/release
Video
ID : 0
Format : AVC
Format/Info : Advanced Video Codec
Format profile : High@L3.1
Format settings : 1 Ref Frames
Format settings, CABAC : No
Format settings, ReFrames : 1 frame
Codec ID : H264
Duration : 59 min 8 s
Bit rate : 2 916 kb/s
Width : 1 280 pixels
Height : 720 pixels
Display aspect ratio : 16:9
Frame rate : 29.970 (30000/1001) FPS
Original frame rate : 29.970 (29970/1000) FPS
Color space : YUV
Chroma subsampling : 4:2:0
Bit depth : 8 bits
Scan type : Progressive
Bits/(Pixel*Frame) : 0.106
Stream size : 1.25 GiB (94%)
Writing library : x264 core 116 r2057kMod 0ba8a9c
Encoding settings : cabac=0 / ref=1 / deblock=1:0:0 / analyse=0x3:0x13 / me=umh / subme=7 / psy=1 / fade_compensate=0.00 / psy_rd=1.00:0.00 / mixed_ref=0 / me_range=16 / chroma_me=1 / trellis=1 / 8x8dct=1 / cqm=0 / deadzone=21,11 / fast_pskip=1 / chroma_qp_offset=-2 / threads=4 / sliced_threads=1 / slices=4 / nr=0 / decimate=1 / interlaced=0 / bluray_compat=0 / constrained_intra=0 / bframes=0 / weightp=2 / keyint=250 / keyint_min=25 / scenecut=40 / intra_refresh=0 / rc=abr / mbtree=0 / bitrate=2916 / ratetol=1.0 / qcomp=0.60 / qpmin=10 / qpmax=51 / qpstep=4 / ip_ratio=1.40 / aq=1:1.00
Audio
ID : 1
Format : MPEG Audio
Format version : Version 1
Format profile : Layer 3
Format settings : Joint stereo
Codec ID : 55
Codec ID/Hint : MP3
Duration : 59 min 8 s
Bit rate mode : Constant
Bit rate : 192 kb/s
Channel(s) : 2 channels
Sampling rate : 48.0 kHz
Compression mode : Lossy
Stream size : 81.2 MiB (6%)
Alignment : Aligned on interleaves
Interleave, duration : 33 ms (1.00 video frame)
Interleave, preload duratio : 504 ms

Скриншоты

[Цитировать]



Показать сообщения:    

Текущее время: 16-Июл 10:45

Часовой пояс: UTC + 6


Вы не можете начинать темы
Вы не можете отвечать на сообщения
Вы не можете редактировать свои сообщения
Вы не можете удалять свои сообщения
Вы не можете голосовать в опросах
Вы не можете прикреплять файлы к сообщениям
Вы не можете скачивать файлы

!ВНИМАНИЕ!
Сайт не предоставляет электронные версии произведений, а занимается лишь коллекционированием и каталогизацией ссылок, присылаемых и публикуемых на форуме нашими читателями. Если вы являетесь правообладателем какого-либо представленного материала и не желаете, чтобы ссылка на него находилась в нашем каталоге, свяжитесь с нами, и мы незамедлительно удалим ее. Файлы для обмена на трекере предоставлены пользователями сайта, и администрация не несет ответственности за их содержание. Просьба не заливать файлы, защищенные авторскими правами, а также файлы нелегального содержания!