***Уважаемые пользователи и гости !!! Сайт переехал на новый домен Torrents-club.net. Просьба изменить ваши закладки! ***
 
[ Сегодня идет свободное скачивание без начисления Download ]


Статистика раздачи
Скачал: [ 1 ]
 
   
 
 
 
 
Тайная жизнь пингвинов
Penguin Highway
«Магия и волшебство, загадки бескрайнего мира и безумные приключения»- Информация
Производство: Япония, Studio Colorido Co.
Жанр: Аниме, Мультфильм, Фентези, Приключение
Режиссер: Исида Хироясу
Описание:
Любознательный четвероклассник Аояма ведет дневник, куда записывает все свои открытия и эксперименты. Однажды в его родном городе вдали от морского побережья необъяснимым образом появляются пингвины. А на окраине города возникает некая неземная океаническая сфера. Мальчик берется разгадать этот удивительный феномен, который оказывается связан не только с его жизнью, но и с судьбой всего мира.


Возраст: 6+ (зрителям, достигшим 6 лет)
Дата мировой премьеры: 17 августа 2018
Дата российской премьеры: 6 сентября 2018, «Экспонента»
Продолжительность: 01:57:40
Перевод: Дублированный
Файл
Качество видео: WEBRip Сэмпл
Видео: AVC/H264, 1920x782, 24.000 fps, 1 800 Kbps
Аудио: AC-3, 48.0 KHz, 2 ch, 128 Kbps - Русский
Субтитры: Отсутствуют

Mediainfo:

General
Unique ID : 296561009559585311647185590509299851742 (0xDF1B92A7455A12FA1AA24DACFF9C61DE)
Complete name : Тайная.жизнь.пингвинов.2018.WEBRip.1080p.DUB.NNMClub.mkv
Format : Matroska
Format version : Version 4
File size : 1.58 GiB
Duration : 1 h 57 min
Overall bit rate : 1 925 kb/s
Encoded date : UTC 2019-02-08 03:54:36
Writing application : mkvmerge v30.1.0 ('Forever And More') 64-bit
Writing library : libebml v1.3.6 + libmatroska v1.4.9
Video
ID : 1
Format : AVC
Format/Info : Advanced Video Codec
Format profile : High@L4.1
Format settings : CABAC / 4 Ref Frames
Format settings, CABAC : Yes
Format settings, ReFrames : 4 frames
Codec ID : V_MPEG4/ISO/AVC
Duration : 1 h 57 min
Bit rate : 1 800 kb/s
Width : 1 920 pixels
Height : 782 pixels
Display aspect ratio : 2.455
Frame rate mode : Constant
Frame rate : 24.000 FPS
Color space : YUV
Chroma subsampling : 4:2:0
Bit depth : 8 bits
Scan type : Progressive
Bits/(Pixel*Frame) : 0.050
Stream size : 1.48 GiB (93%)
Writing library : x264 core 146 r2538 121396c
Encoding settings : cabac=1 / ref=3 / deblock=1:0:0 / analyse=0x3:0x113 / me=hex / subme=7 / psy=1 / psy_rd=1.00:0.00 / mixed_ref=1 / me_range=16 / chroma_me=1 / trellis=1 / 8x8dct=1 / cqm=0 / deadzone=21,11 / fast_pskip=1 / chroma_qp_offset=-2 / threads=12 / lookahead_threads=2 / sliced_threads=0 / nr=0 / decimate=1 / interlaced=0 / bluray_compat=0 / constrained_intra=0 / bframes=3 / b_pyramid=2 / b_adapt=1 / b_bias=0 / direct=1 / weightb=1 / open_gop=0 / weightp=2 / keyint=240 / keyint_min=24 / scenecut=40 / intra_refresh=0 / rc_lookahead=40 / rc=2pass / mbtree=1 / bitrate=1800 / ratetol=1.0 / qcomp=0.60 / qpmin=0 / qpmax=69 / qpstep=4 / cplxblur=20.0 / qblur=0.5 / vbv_maxrate=3600 / vbv_bufsize=14000 / nal_hrd=none / filler=0 / ip_ratio=1.40 / aq=1:1.00
Language : Japanese
Default : Yes
Forced : No
Audio
ID : 2
Format : AC-3
Format/Info : Audio Coding 3
Commercial name : Dolby Digital
Codec ID : A_AC3
Duration : 1 h 57 min
Bit rate mode : Constant
Bit rate : 128 kb/s
Channel(s) : 2 channels
Channel layout : L R
Sampling rate : 48.0 kHz
Frame rate : 31.250 FPS (1536 SPF)
Bit depth : 16 bits
Compression mode : Lossy
Delay relative to video : -83 ms
Stream size : 108 MiB (7%)
Language : Russian
Service kind : Complete Main
Default : Yes
Forced : No

Знаете ли вы, что...

Оригинальное название мультфильма переводится как «Пингвинье шоссе».

Примечание:

Релиз скачан с онлайн сервиса, раздаётся в первоначальном виде без перекодирования.

Скриншоты

Скриншоты:

Дополнительные скриншоты:

[Цитировать]



Показать сообщения:    

Текущее время: 16-Июн 04:59

Часовой пояс: UTC + 6


Вы не можете начинать темы
Вы не можете отвечать на сообщения
Вы не можете редактировать свои сообщения
Вы не можете удалять свои сообщения
Вы не можете голосовать в опросах
Вы не можете прикреплять файлы к сообщениям
Вы не можете скачивать файлы

!ВНИМАНИЕ!
Сайт не предоставляет электронные версии произведений, а занимается лишь коллекционированием и каталогизацией ссылок, присылаемых и публикуемых на форуме нашими читателями. Если вы являетесь правообладателем какого-либо представленного материала и не желаете, чтобы ссылка на него находилась в нашем каталоге, свяжитесь с нами, и мы незамедлительно удалим ее. Файлы для обмена на трекере предоставлены пользователями сайта, и администрация не несет ответственности за их содержание. Просьба не заливать файлы, защищенные авторскими правами, а также файлы нелегального содержания!