***Уважаемые пользователи и гости !!! Сайт переехал на новый домен Torrents-club.net. Просьба изменить ваши закладки! ***
 
[ Сегодня идет свободное скачивание без начисления Download ]


Статистика раздачи
Нет
 
   
 
 
 
 
Босс-молокосос / The Boss Baby / 2017 [HEVC, HDR, UHD, 4K / Blu-Ray Remux] (2160p) Год выпуска: 2017
Жанр: Мультфильм, приключения, комедия, семейный, полнометражный
Выпущено: США, DreamWorks Animation
Режиссер: Том МакГрат
Продолжительность: 01:37:30
Перевод: Дублированный
Субтитры: Русские, английские, украинские
возраст 6+

В ролях:
Майлз Кристофер Бакши, Алек Болдуин, Эрик Белл мл., Стив Бушеми, Джимми Киммел, Лиза Кудроу, Тоби Магуайр, ВивиЭнн Йи

О фильме
: Эта актуальная во все времена история для взрослых и детей рассказывается от лица семилетнего брата новорожденного — фантазера Тима, который ревнует его к родителям. Но главный герой — совсем не простой ребенок, он обладает лидерскими задатками, уже носит деловые костюмы и во всем видит бизнес-задачу.
Босс-молокосос
Техданные
Качество: Blu-Ray Remux (2160p)
Видео: HEVC, HDR, 26.8 Mбит/с, 3840x2160, 23.976 кадр/с
Аудио: Русский (AC3, 6 ch, 640 Кбит/с), украинский (AC3, 6 ch, 448 Кбит/с), английский (True-HD, 8 ch, 45 Кбит/с)

Релиз

Релиз от: TERMiNAL, BLUEBIRD
Качество: UHD BDRemux (HDR)
Перевод: Дублированный (Лицензия BD EUR)
Субтитры: Русские (Full-length, Forced), Украинские (Full-length, Forced), Английские
Аудио: AC3, 6 ch, 640 kbps - Русский
Аудио: AC3, 6 ch, 448 kbps - Украинский
Аудио: TrueHD-Atmos, 8 ch, 4598 kbps - Английский

MediaInfo:

General
Unique ID : 177869409877193507229610884913822383536 (0x85D066FAFD5679F09D8BD03BBB5B3DB0)
Complete name : T_BABY_BOSS_BD_UHD_HDR_REMUX-BLUEBIRD.mkv
Format : Matroska
Format version : Version 4 / Version 2
File size : 22.2 GiB
Duration : 1 h 37 min
Overall bit rate mode : Variable
Overall bit rate : 32.5 Mb/s
Movie name : T_BABY_BOSS_BD_UHD_HDR_REMUX-BLUEBIRD
Encoded date : UTC 2017-11-01 02:09:29
Writing application : mkvmerge v16.0.0 ('Protest') 64-bit
Writing library : libebml v1.3.5 + libmatroska v1.4.8
Cover : Yes
Attachments : cover.png
Video
ID : 1
Format : HEVC
Format/Info : High Efficiency Video Coding
Format profile : Main 10@L5.1@High
Codec ID : V_MPEGH/ISO/HEVC
Duration : 1 h 37 min
Bit rate : 26.8 Mb/s
Width : 3 840 pixels
Height : 2 160 pixels
Display aspect ratio : 16:9
Frame rate mode : Constant
Frame rate : 23.976 (24000/1001) FPS
Color space : YUV
Chroma subsampling : 4:2:0 (Type 2)
Bit depth : 10 bits
Bits/(Pixel*Frame) : 0.135
Stream size : 18.2 GiB (82%)
Title : T_BABY_BOSS_BD_UHD_HDR_REMUX-BLUEBIRD
Default : Yes
Forced : No
Color range : Limited
Color primaries : BT.2020
Transfer characteristics : SMPTE ST 2084
Matrix coefficients : BT.2020 non-constant
Mastering display color primaries : R: x=0.680000 y=0.320000, G: x=0.265000 y=0.690000, B: x=0.150000 y=0.060000, White point: x=0.312700 y=0.329000
Mastering display luminance : min: 0.0050 cd/m2, max: 1000.0000 cd/m2
Audio #1
ID : 2
Format : AC-3
Format/Info : Audio Coding 3
Format settings, Endianness : Big
Codec ID : A_AC3
Duration : 1 h 37 min
Bit rate mode : Constant
Bit rate : 640 kb/s
Channel(s) : 6 channels
Channel positions : Front: L C R, Side: L R, LFE
Sampling rate : 48.0 kHz
Frame rate : 31.250 FPS (1536 SPF)
Bit depth : 16 bits
Compression mode : Lossy
Stream size : 446 MiB (2%)
Title : [DUB] DD 5.1 @ 640 kbps
Service kind : Complete Main
Default : Yes
Forced : No
Audio #2
ID : 3
Format : AC-3
Format/Info : Audio Coding 3
Format settings, Endianness : Big
Codec ID : A_AC3
Duration : 1 h 37 min
Bit rate mode : Constant
Bit rate : 448 kb/s
Channel(s) : 6 channels
Channel positions : Front: L C R, Side: L R, LFE
Sampling rate : 48.0 kHz
Frame rate : 31.250 FPS (1536 SPF)
Bit depth : 16 bits
Compression mode : Lossy
Stream size : 312 MiB (1%)
Title : [DUB] DD 5.1 @ 448 kbps
Language : Ukrainian
Service kind : Complete Main
Default : No
Forced : No
Audio #3
ID : 4
Format : TrueHD
Format profile : TrueHD+Atmos / TrueHD
Codec ID : A_TRUEHD
Duration : 1 h 37 min
Bit rate mode : Variable
Bit rate : 4 598 kb/s
Maximum bit rate : 8 229 kb/s
Channel(s) : Object Based / 8 channels
Channel positions : Object Based / Front: L C R, Side: L R, Back: L R, LFE
Sampling rate : / 48.0 kHz
Frame rate : 1 200.000 FPS (40 SPF)
Compression mode : Lossless
Stream size : 3.13 GiB (14%)
Title : [ORIGINAL] ATMOS 7.1 @ 5238 kbps
Language : English
Default : No
Forced : No
Text #1
ID : 5
Format : UTF-8
Codec ID : S_TEXT/UTF8
Codec ID/Info : UTF-8 Plain Text
Duration : 1 h 36 min
Bit rate : 89 b/s
Count of elements : 1560
Stream size : 63.4 KiB (0%)
Title : Full-length
Language : Russian
Default : No
Forced : No
Text #2
ID : 6
Format : UTF-8
Codec ID : S_TEXT/UTF8
Codec ID/Info : UTF-8 Plain Text
Duration : 1 h 36 min
Bit rate : 96 b/s
Count of elements : 1590
Stream size : 68.4 KiB (0%)
Title : Full-length
Language : Ukrainian
Default : No
Forced : No
Text #3
ID : 7
Format : PGS
Muxing mode : zlib
Codec ID : S_HDMV/PGS
Codec ID/Info : Picture based subtitle format used on BDs/HD-DVDs
Duration : 1 h 36 min
Bit rate : 48.8 kb/s
Count of elements : 4026
Stream size : 33.7 MiB (0%)
Title : Full-length
Language : English
Default : No
Forced : No
Text #4
ID : 8
Format : UTF-8
Codec ID : S_TEXT/UTF8
Codec ID/Info : UTF-8 Plain Text
Duration : 1 h 19 min
Bit rate : 0 b/s
Count of elements : 17
Stream size : 383 Bytes (0%)
Title : Forced
Language : Russian
Default : Yes
Forced : Yes
Text #5
ID : 9
Format : UTF-8
Codec ID : S_TEXT/UTF8
Codec ID/Info : UTF-8 Plain Text
Duration : 1 h 24 min
Bit rate : 0 b/s
Count of elements : 17
Stream size : 374 Bytes (0%)
Title : Forced
Language : Ukrainian
Default : No
Forced : No
Menu
00:00:00.000 : en:Chapter 1
00:03:45.892 : en:Chapter 2
00:08:58.287 : en:Chapter 3
00:11:45.913 : en:Chapter 4
00:14:59.565 : en:Chapter 5
00:19:38.218 : en:Chapter 6
00:22:52.788 : en:Chapter 7
00:28:27.247 : en:Chapter 8
00:30:26.115 : en:Chapter 9
00:33:45.481 : en:Chapter 10
00:36:57.256 : en:Chapter 11
00:39:18.356 : en:Chapter 12
00:42:35.344 : en:Chapter 13
00:46:20.611 : en:Chapter 14
00:51:37.719 : en:Chapter 15
00:53:25.285 : en:Chapter 16
00:56:28.718 : en:Chapter 17
00:59:35.405 : en:Chapter 18
01:04:03.172 : en:Chapter 19
01:08:15.758 : en:Chapter 20
01:11:29.910 : en:Chapter 21
01:16:25.247 : en:Chapter 22
01:23:10.110 : en:Chapter 23
01:27:36.960 : en:Chapter 24

Скриншоты

[Цитировать]



Показать сообщения:    

Текущее время: 16-Июл 10:53

Часовой пояс: UTC + 6


Вы не можете начинать темы
Вы не можете отвечать на сообщения
Вы не можете редактировать свои сообщения
Вы не можете удалять свои сообщения
Вы не можете голосовать в опросах
Вы не можете прикреплять файлы к сообщениям
Вы не можете скачивать файлы

!ВНИМАНИЕ!
Сайт не предоставляет электронные версии произведений, а занимается лишь коллекционированием и каталогизацией ссылок, присылаемых и публикуемых на форуме нашими читателями. Если вы являетесь правообладателем какого-либо представленного материала и не желаете, чтобы ссылка на него находилась в нашем каталоге, свяжитесь с нами, и мы незамедлительно удалим ее. Файлы для обмена на трекере предоставлены пользователями сайта, и администрация не несет ответственности за их содержание. Просьба не заливать файлы, защищенные авторскими правами, а также файлы нелегального содержания!