***Уважаемые пользователи и гости !!! Сайт переехал на новый домен Torrents-club.net. Просьба изменить ваши закладки! ***
 
[ Сегодня идет свободное скачивание без начисления Download ]


Статистика раздачи
Скачал: [ 6 ]
 
   
 
 
 
 
Генлок
gen:Lock
(сезон 1, серии 1-8 из 8)
- Информация
Производство: США, Rooster Teeth
Жанр: фантастика, приключения, боевик
Режиссер: Грэй Дж. Хэддок
Описание:
Сюжет мультсериала расскажет о юных рекрутах-пилотах, способных управлять механическими робо-гигантами следующего поколения, которые должны положить конец глобальной войне. Однако, за их новообретенные способности придется немало заплатить.


Дата мировой премьеры: 26 января 2019
Продолжительность: ~00:24:00 серия
Перевод: Двуголосый закадровый, любительский (NewStation)
Файл
Качество видео: WEBRip Сэмпл
Видео: AVC/H.264, 1920х1080, ~4800 kbps
Аудио #1: AC-3, 2ch, 256 kbps - Русский
Аудио #2: AAC, 2ch, 128 kbps - Английский
Субтитры: Русские, Английские
Присутствует ненормативная лексика!

Mediainfo:

Общее
Уникальный идентификатор : 6490109283273879734764401240645347398 (0x4E1F317BF3A9449AD10C9609FA0A846)
Полное имя : C:\NewStation\GenLock.s01.WEBRip.1080p.NewStation\GenLock.S01E01.WEBRip.1080p.NewStation.mkv
Формат : Matroska
Версия формата : Version 4 / Version 2
Размер файла : 1,14 Гбайт
Продолжительность : 32 м. 7 с.
Общий поток : 5087 Кбит/сек
Дата кодирования : UTC 2019-02-03 16:49:09
Программа кодирования : mkvmerge v28.1.0 ('Morning Child') 64-bit
Библиотека кодирования : libebml v1.3.6 + libmatroska v1.4.9
Видео
Идентификатор : 1
Формат : AVC
Формат/Информация : Advanced Video Codec
Профиль формата : High@L4
Настройки формата : CABAC / 4 Ref Frames
Параметр CABAC формата : Да
Параметр RefFrames формата : 4 кадра
Идентификатор кодека : V_MPEG4/ISO/AVC
Продолжительность : 32 м. 7 с.
Битрейт : 4700 Кбит/сек
Ширина : 1920 пикселей
Высота : 1080 пикселей
Соотношение сторон : 16:9
Режим частоты кадров : Постоянный
Частота кадров : 24,000 кадра/сек
Цветовое пространство : YUV
Субдискретизация насыщенности : 4:2:0
Битовая глубина : 8 бит
Тип развёртки : Прогрессивная
Бит/(Пиксели*Кадры) : 0.094
Размер потока : 1,05 Гбайт (92%)
Библиотека кодирования : x264 core 142
Настройки программы : cabac=1 / ref=3 / deblock=1:-1:-1 / analyse=0x3:0x113 / me=hex / subme=7 / psy=1 / psy_rd=1.00:0.15 / mixed_ref=1 / me_range=16 / chroma_me=1 / trellis=1 / 8x8dct=1 / cqm=0 / deadzone=21,11 / fast_pskip=1 / chroma_qp_offset=-3 / threads=12 / lookahead_threads=2 / sliced_threads=0 / nr=0 / decimate=1 / interlaced=0 / bluray_compat=0 / constrained_intra=0 / bframes=3 / b_pyramid=2 / b_adapt=1 / b_bias=0 / direct=1 / weightb=1 / open_gop=0 / weightp=2 / keyint=9999999 / keyint_min=5000000 / scenecut=0 / intra_refresh=0 / rc_lookahead=40 / rc=crf / mbtree=1 / crf=18.0 / qcomp=0.60 / qpmin=0 / qpmax=69 / qpstep=4 / vbv_maxrate=8000 / vbv_bufsize=12000 / crf_max=0.0 / nal_hrd=none / filler=0 / ip_ratio=1.40 / aq=1:1.00
Default : Да
Forced : Нет
Аудио #1
Идентификатор : 2
Формат : AC-3
Формат/Информация : Audio Coding 3
Идентификатор кодека : A_AC3
Продолжительность : 32 м. 7 с.
Вид битрейта : Постоянный
Битрейт : 256 Кбит/сек
Каналы : 2 канала
Расположение каналов : Front: L R
Частота : 48,0 КГц
Частота кадров : 31,250 кадров/сек (1536 SPF)
Битовая глубина : 16 бит
Метод сжатия : С потерями
Задержка видео : -83 мс.
Размер потока : 58,8 Мбайт (5%)
Заголовок : NewStation
Язык : Russian
ServiceKind/String : Complete Main
Default : Да
Forced : Нет
Аудио #2
Идентификатор : 3
Формат : AAC
Формат/Информация : Advanced Audio Codec
Профиль формата : LC
Идентификатор кодека : A_AAC-2
Продолжительность : 32 м. 7 с.
Битрейт : 128 Кбит/сек
Каналы : 2 канала
Расположение каналов : Front: L R
Частота : 44,1 КГц
Частота кадров : 43,066 кадра/сек (1024 SPF)
Метод сжатия : С потерями
Задержка видео : -83 мс.
Размер потока : 29,4 Мбайт (3%)
Заголовок : Original
Default : Нет
Forced : Нет
Текст #1
Идентификатор : 4
Формат : UTF-8
Идентификатор кодека : S_TEXT/UTF8
Идентификатор кодека/Информация : UTF-8 Plain Text
Продолжительность : 29 м. 55 с.
Битрейт : 72 бит/сек
ElementCount : 322
Размер потока : 16,0 Кбайт (0%)
Заголовок : Константин Крей
Язык : Russian
Default : Нет
Forced : Нет
Текст #2
Идентификатор : 5
Формат : UTF-8
Идентификатор кодека : S_TEXT/UTF8
Идентификатор кодека/Информация : UTF-8 Plain Text
Продолжительность : 31 м. 22 с.
Битрейт : 58 бит/сек
ElementCount : 511
Размер потока : 13,4 Кбайт (0%)
Заголовок : Original
Язык : English
Default : Нет
Forced : Нет

Список серий:

Эпизод 1
The Pilot
Эпизод 2
There's Always Tomorrow
Эпизод 3
Second Birthday
Эпизод 4
Training Daze
Эпизод 5
The Best Defense
Эпизод 6
The Only Me I Know
Эпизод 7
Эпизод #1.7
Эпизод 8
Эпизод #1.8

Скриншоты

Скриншоты:

[Цитировать]



Показать сообщения:    

Текущее время: 16-Июн 07:35

Часовой пояс: UTC + 6


Вы не можете начинать темы
Вы не можете отвечать на сообщения
Вы не можете редактировать свои сообщения
Вы не можете удалять свои сообщения
Вы не можете голосовать в опросах
Вы не можете прикреплять файлы к сообщениям
Вы не можете скачивать файлы

!ВНИМАНИЕ!
Сайт не предоставляет электронные версии произведений, а занимается лишь коллекционированием и каталогизацией ссылок, присылаемых и публикуемых на форуме нашими читателями. Если вы являетесь правообладателем какого-либо представленного материала и не желаете, чтобы ссылка на него находилась в нашем каталоге, свяжитесь с нами, и мы незамедлительно удалим ее. Файлы для обмена на трекере предоставлены пользователями сайта, и администрация не несет ответственности за их содержание. Просьба не заливать файлы, защищенные авторскими правами, а также файлы нелегального содержания!