***Уважаемые пользователи и гости !!! Сайт переехал на новый домен Torrents-club.net. Просьба изменить ваши закладки! ***
 
[ Сегодня идет свободное скачивание без начисления Download ]


Статистика раздачи
Качаю: [ 1 ]
Скачал: [ 17 ]
 
   
 
 
 
 
Любовь, смерть и роботы
Love, Death & Robots
- Информация
Страна: США
Производство: Blur Studio, Netflix
Жанр: мультфильм, ужасы, фантастика, фэнтези, комедия, боевик, криминал, для взрослых
Режиссер: Тим Миллер
Актеры: Нолан Норт, Мэттью Кинг, Джош Бренер, Генри Даутуэйт, Грэхэм Хэмилто, Эмили О’Брайэн, Хелен Сэдлер, Илэйн Тан.
Описание:
Проект Любовь, смерть и роботы - это отдельный вид искусства. Сериал представляет собой великолепную смесь историй, представленных в совершенно различных жанрах. Здесь вас ожидает столкновение с классическими элементами научной фантастики, необычным юмором, удивительным фэнтезийным миром и по-настоящему пробирающим до мурашек ужасом. Каждый из персонажей в проекте покажется вам странным, как минимум. Здесь происходит настоящий вынос мозга, к которому никак не привыкнуть и не подготовиться. Если вы готовы смотреть историю, где в центре внимания оказываются молочные продукты, неожиданно ожившие после загадочных обстоятельств, безумные роботы, стремящиеся захватить мир и солдаты, способные обращаться в животных, то добро пожаловать к экранам! Перед вами потрясающая история, которая обязательно придётся по душе всем поклонникам безумств и абсурда!


Рейтинг MPAA: PG-13 (детям до 13 лет просмотр нежелателен)
Дата мировой премьеры: 15.03.2019
Продолжительность: 18 серий по ~00:15:00
Перевод: Дублированный (BTI Studios & Пифагор)
Файл
Качество видео: WEBRip Сэмпл
Видео: AVC/H.264, 1920x1080p, 24.000 fps, ~6698 kbps avg
Аудио#1: 48 kHz, AC3, 3/2 (L,C,R,l,r) + LFE ch, ~384 kbps avg | Русский
Аудио#2: 48 kHz, AC3, 3/2 (L,C,R,l,r) + LFE ch, ~384 kbps avg | Английский
Субтитры: Русские, английские, испанские, польские, французские, турецкие, португальские, немецкие, датские, итальянские, испанские, шведские, финские, норвежские, голландские

Mediainfo:


Полное имя : Love.Death.and.Robots.S01.1080p.WEB-DL.DUB.EniaHD\Love.Death.and.Robots.S01E01.Sonnies.Edge.1080p.WEB-DL.DUB.EniaHD.mkv
Формат : Matroska
Версия формата : Version 4
Размер файла : 930 Мбайт
Продолжительность : 17 м. 14 с.
Режим общего битрейта : Переменный
Общий поток : 7537 Кбит/сек
Дата кодирования : UTC 2019-03-15 08:58:08
Программа кодирования : mkvmerge v32.0.0 ('Astral Progressions') 32-bit
Библиотека кодирования : libebml v1.3.7 + libmatroska v1.5.0
Обложка : Yes
Attachments : cover.jpg
Видео
Идентификатор : 1
Формат : AVC
Формат/Информация : Advanced Video Codec
Профиль формата : Main@L4
Настройки формата : CABAC / 3 Ref Frames
Параметр CABAC формата : Да
Параметр RefFrames формата : 3 кадра
Идентификатор кодека : V_MPEG4/ISO/AVC
Продолжительность : 17 м. 14 с.
Вид битрейта : Переменный
Битрейт : 6698 Кбит/сек
Номинальный битрейт : 7150 Кбит/сек
Максимальный битрейт : 10,7 Мбит/сек
Ширина : 1920 пикселей
Высота : 1080 пикселей
Соотношение сторон : 16:9
Режим частоты кадров : Постоянный
Частота кадров : 24,000 кадра/сек
Цветовое пространство : YUV
Субдискретизация насыщенности : 4:2:0
Битовая глубина : 8 бит
Тип развёртки : Прогрессивная
Бит/(Пиксели*Кадры) : 0.135
Размер потока : 826 Мбайт (89%)
Заголовок : Release by Zgurvas for EniaHD
Библиотека кодирования : x264 core 148 r2715 7e75228
Настройки программы : cabac=1 / ref=3 / deblock=1:0:0 / analyse=0x1:0x111 / me=umh / subme=10 / psy=1 / psy_rd=1.00:0.00 / mixed_ref=1 / me_range=24 / chroma_me=1 / trellis=2 / 8x8dct=0 / cqm=0 / deadzone=21,11 / fast_pskip=1 / chroma_qp_offset=-2 / threads=8 / lookahead_threads=1 / sliced_threads=0 / nr=0 / decimate=1 / interlaced=0 / bluray_compat=0 / stitchable=1 / constrained_intra=0 / bframes=2 / b_pyramid=0 / b_adapt=2 / b_bias=0 / direct=3 / weightb=1 / open_gop=0 / weightp=2 / keyint=48 / keyint_min=25 / scenecut=0 / intra_refresh=0 / rc_lookahead=48 / rc=2pass / mbtree=1 / bitrate=7150 / ratetol=1.0 / qcomp=0.50 / qpmin=6 / qpmax=51 / qpstep=4 / cplxblur=20.0 / qblur=0.5 / vbv_maxrate=10725 / vbv_bufsize=14300 / nal_hrd=vbr / filler=0 / ip_ratio=1.40 / aq=1:1.00
Язык : English
Default : Да
Forced : Нет
Аудио #1
Идентификатор : 2
Формат : AC-3
Формат/Информация : Audio Coding 3
Коммерческое название : Dolby Digital
Идентификатор кодека : A_AC3
Продолжительность : 17 м. 14 с.
Вид битрейта : Постоянный
Битрейт : 384 Кбит/сек
Каналы : 6 каналов
Channel layout : L R C LFE Ls Rs
Частота : 48,0 КГц
Частота кадров : 31,250 кадров/сек (1536 SPF)
Битовая глубина : 16 бит
Метод сжатия : С потерями
Размер потока : 47,4 Мбайт (5%)
Заголовок : AC3 5.1 @ 384 kbps - DUB, BTI Studios + Pythagor
Язык : Russian
ServiceKind/String : Complete Main
Default : Да
Forced : Нет
Аудио #2
Идентификатор : 3
Формат : E-AC-3 JOC
Формат/Информация : Enhanced AC-3 with Joint Object Coding
Коммерческое название : Dolby Digital Plus with Dolby Atmos
Идентификатор кодека : A_EAC3
Продолжительность : 17 м. 14 с.
Вид битрейта : Постоянный
Битрейт : 448 Кбит/сек
Каналы : 6 каналов
Channel layout : L R C LFE Ls Rs
Частота : 48,0 КГц
Частота кадров : 31,250 кадров/сек (1536 SPF)
Метод сжатия : С потерями
Размер потока : 55,2 Мбайт (6%)
Заголовок : E-AC3 + Atmos 5.1 @ 448 kbps - Original
Язык : English
ServiceKind/String : Complete Main
Default : Нет
Forced : Нет
Complexity index : 16
Number of dynamic objects : 15
Bed channel count : 1 канал
Bed channel configuration : LFE
Текст #1
Идентификатор : 4
Формат : UTF-8
Идентификатор кодека : S_TEXT/UTF8
Идентификатор кодека/Информация : UTF-8 Plain Text
Продолжительность : 5 м. 53 с.
Битрейт : 1 бит/сек
ElementCount : 3
Размер потока : 83,0 байт (0%)
Заголовок : Forced
Язык : Russian
Default : Да
Forced : Да
Текст #2
Идентификатор : 5
Формат : UTF-8
Идентификатор кодека : S_TEXT/UTF8
Идентификатор кодека/Информация : UTF-8 Plain Text
Продолжительность : 15 м. 24 с.
Битрейт : 67 бит/сек
ElementCount : 159
Размер потока : 7,64 Кбайт (0%)
Заголовок : Full
Язык : Russian
Default : Нет
Forced : Нет
Текст #3
Идентификатор : 6
Формат : UTF-8
Идентификатор кодека : S_TEXT/UTF8
Идентификатор кодека/Информация : UTF-8 Plain Text
Продолжительность : 14 м. 1 с.
Битрейт : 41 бит/сек
ElementCount : 165
Размер потока : 4,29 Кбайт (0%)
Заголовок : Full
Язык : English
Default : Нет
Forced : Нет
Текст #4
Идентификатор : 7
Формат : UTF-8
Идентификатор кодека : S_TEXT/UTF8
Идентификатор кодека/Информация : UTF-8 Plain Text
Продолжительность : 14 м. 52 с.
Битрейт : 50 бит/сек
ElementCount : 206
Размер потока : 5,52 Кбайт (0%)
Заголовок : Full SDH
Язык : English
Default : Нет
Forced : Нет
Текст #5
Идентификатор : 8
Формат : UTF-8
Идентификатор кодека : S_TEXT/UTF8
Идентификатор кодека/Информация : UTF-8 Plain Text
Продолжительность : 15 м. 18 с.
Битрейт : 63 бит/сек
ElementCount : 159
Размер потока : 7,13 Кбайт (0%)
Язык : Arabic
Default : Нет
Forced : Нет
Текст #6
Идентификатор : 9
Формат : UTF-8
Идентификатор кодека : S_TEXT/UTF8
Идентификатор кодека/Информация : UTF-8 Plain Text
Продолжительность : 15 м. 24 с.
Битрейт : 39 бит/сек
ElementCount : 160
Размер потока : 4,46 Кбайт (0%)
Язык : Danish
Default : Нет
Forced : Нет
Текст #7
Идентификатор : 10
Формат : UTF-8
Идентификатор кодека : S_TEXT/UTF8
Идентификатор кодека/Информация : UTF-8 Plain Text
Продолжительность : 15 м. 24 с.
Битрейт : 38 бит/сек
ElementCount : 163
Размер потока : 4,35 Кбайт (0%)
Язык : German
Default : Нет
Forced : Нет
Текст #8
Идентификатор : 11
Формат : UTF-8
Идентификатор кодека : S_TEXT/UTF8
Идентификатор кодека/Информация : UTF-8 Plain Text
Продолжительность : 15 м. 18 с.
Битрейт : 68 бит/сек
ElementCount : 158
Размер потока : 7,64 Кбайт (0%)
Язык : Greek
Default : Нет
Forced : Нет
Текст #9
Идентификатор : 12
Формат : UTF-8
Идентификатор кодека : S_TEXT/UTF8
Идентификатор кодека/Информация : UTF-8 Plain Text
Продолжительность : 15 м. 24 с.
Битрейт : 37 бит/сек
ElementCount : 162
Размер потока : 4,27 Кбайт (0%)
Язык : Spanish
Default : Нет
Forced : Нет
Текст #10
Идентификатор : 13
Формат : UTF-8
Идентификатор кодека : S_TEXT/UTF8
Идентификатор кодека/Информация : UTF-8 Plain Text
Продолжительность : 15 м. 24 с.
Битрейт : 37 бит/сек
ElementCount : 175
Размер потока : 4,24 Кбайт (0%)
Заголовок : European
Язык : Spanish
Default : Нет
Forced : Нет
Текст #11
Идентификатор : 14
Формат : UTF-8
Идентификатор кодека : S_TEXT/UTF8
Идентификатор кодека/Информация : UTF-8 Plain Text
Продолжительность : 15 м. 24 с.
Битрейт : 37 бит/сек
ElementCount : 156
Размер потока : 4,23 Кбайт (0%)
Язык : Finnish
Default : Нет
Forced : Нет
Текст #12
Идентификатор : 15
Формат : UTF-8
Идентификатор кодека : S_TEXT/UTF8
Идентификатор кодека/Информация : UTF-8 Plain Text
Продолжительность : 15 м. 24 с.
Битрейт : 41 бит/сек
ElementCount : 158
Размер потока : 4,72 Кбайт (0%)
Язык : French
Default : Нет
Forced : Нет
Текст #13
Идентификатор : 16
Формат : UTF-8
Идентификатор кодека : S_TEXT/UTF8
Идентификатор кодека/Информация : UTF-8 Plain Text
Продолжительность : 15 м. 24 с.
Битрейт : 60 бит/сек
ElementCount : 159
Размер потока : 6,87 Кбайт (0%)
Язык : Hebrew
Default : Нет
Forced : Нет
Текст #14
Идентификатор : 17
Формат : UTF-8
Идентификатор кодека : S_TEXT/UTF8
Идентификатор кодека/Информация : UTF-8 Plain Text
Продолжительность : 15 м. 24 с.
Битрейт : 37 бит/сек
ElementCount : 158
Размер потока : 4,19 Кбайт (0%)
Язык : Hungarian
Default : Нет
Forced : Нет
Текст #15
Идентификатор : 18
Формат : UTF-8
Идентификатор кодека : S_TEXT/UTF8
Идентификатор кодека/Информация : UTF-8 Plain Text
Продолжительность : 15 м. 24 с.
Битрейт : 37 бит/сек
ElementCount : 160
Размер потока : 4,22 Кбайт (0%)
Язык : Indonesian
Default : Нет
Forced : Нет
Текст #16
Идентификатор : 19
Формат : UTF-8
Идентификатор кодека : S_TEXT/UTF8
Идентификатор кодека/Информация : UTF-8 Plain Text
Продолжительность : 15 м. 24 с.
Битрейт : 39 бит/сек
ElementCount : 158
Размер потока : 4,48 Кбайт (0%)
Язык : Italian
Default : Нет
Forced : Нет
Текст #17
Идентификатор : 20
Формат : UTF-8
Идентификатор кодека : S_TEXT/UTF8
Идентификатор кодека/Информация : UTF-8 Plain Text
Продолжительность : 15 м. 25 с.
Битрейт : 37 бит/сек
ElementCount : 171
Размер потока : 4,27 Кбайт (0%)
Язык : Japanese
Default : Нет
Forced : Нет
Текст #18
Идентификатор : 21
Формат : UTF-8
Идентификатор кодека : S_TEXT/UTF8
Идентификатор кодека/Информация : UTF-8 Plain Text
Продолжительность : 15 м. 24 с.
Битрейт : 47 бит/сек
ElementCount : 160
Размер потока : 5,31 Кбайт (0%)
Язык : Korean
Default : Нет
Forced : Нет
Текст #19
Идентификатор : 22
Формат : UTF-8
Идентификатор кодека : S_TEXT/UTF8
Идентификатор кодека/Информация : UTF-8 Plain Text
Продолжительность : 15 м. 24 с.
Битрейт : 33 бит/сек
ElementCount : 157
Размер потока : 3,74 Кбайт (0%)
Язык : Norwegian Bokmal
Default : Нет
Forced : Нет
Текст #20
Идентификатор : 23
Формат : UTF-8
Идентификатор кодека : S_TEXT/UTF8
Идентификатор кодека/Информация : UTF-8 Plain Text
Продолжительность : 15 м. 24 с.
Битрейт : 34 бит/сек
ElementCount : 153
Размер потока : 3,91 Кбайт (0%)
Язык : Dutch
Default : Нет
Forced : Нет
Текст #21
Идентификатор : 24
Формат : UTF-8
Идентификатор кодека : S_TEXT/UTF8
Идентификатор кодека/Информация : UTF-8 Plain Text
Продолжительность : 15 м. 24 с.
Битрейт : 37 бит/сек
ElementCount : 156
Размер потока : 4,21 Кбайт (0%)
Язык : Polish
Default : Нет
Forced : Нет
Текст #22
Идентификатор : 25
Формат : UTF-8
Идентификатор кодека : S_TEXT/UTF8
Идентификатор кодека/Информация : UTF-8 Plain Text
Продолжительность : 15 м. 24 с.
Битрейт : 37 бит/сек
ElementCount : 157
Размер потока : 4,28 Кбайт (0%)
Язык : Portuguese
Default : Нет
Forced : Нет
Текст #23
Идентификатор : 26
Формат : UTF-8
Идентификатор кодека : S_TEXT/UTF8
Идентификатор кодека/Информация : UTF-8 Plain Text
Продолжительность : 15 м. 24 с.
Битрейт : 39 бит/сек
ElementCount : 162
Размер потока : 4,45 Кбайт (0%)
Заголовок : Brazilian
Язык : Portuguese
Default : Нет
Forced : Нет
Текст #24
Идентификатор : 27
Формат : UTF-8
Идентификатор кодека : S_TEXT/UTF8
Идентификатор кодека/Информация : UTF-8 Plain Text
Продолжительность : 15 м. 24 с.
Битрейт : 42 бит/сек
ElementCount : 158
Размер потока : 4,75 Кбайт (0%)
Язык : Romanian
Default : Нет
Forced : Нет
Текст #25
Идентификатор : 28
Формат : UTF-8
Идентификатор кодека : S_TEXT/UTF8
Идентификатор кодека/Информация : UTF-8 Plain Text
Продолжительность : 15 м. 24 с.
Битрейт : 36 бит/сек
ElementCount : 146
Размер потока : 4,08 Кбайт (0%)
Язык : Swedish
Default : Нет
Forced : Нет
Текст #26
Идентификатор : 29
Формат : UTF-8
Идентификатор кодека : S_TEXT/UTF8
Идентификатор кодека/Информация : UTF-8 Plain Text
Продолжительность : 15 м. 24 с.
Битрейт : 97 бит/сек
ElementCount : 160
Размер потока : 11,0 Кбайт (0%)
Язык : Thai
Default : Нет
Forced : Нет
Текст #27
Идентификатор : 30
Формат : UTF-8
Идентификатор кодека : S_TEXT/UTF8
Идентификатор кодека/Информация : UTF-8 Plain Text
Продолжительность : 15 м. 24 с.
Битрейт : 38 бит/сек
ElementCount : 155
Размер потока : 4,37 Кбайт (0%)
Язык : Turkish
Default : Нет
Forced : Нет
Текст #28
Идентификатор : 31
Формат : UTF-8
Идентификатор кодека : S_TEXT/UTF8
Идентификатор кодека/Информация : UTF-8 Plain Text
Продолжительность : 15 м. 24 с.
Битрейт : 42 бит/сек
ElementCount : 160
Размер потока : 4,77 Кбайт (0%)
Заголовок : Simplified
Язык : Chinese
Default : Нет
Forced : Нет
Текст #29
Идентификатор : 32
Формат : UTF-8
Идентификатор кодека : S_TEXT/UTF8
Идентификатор кодека/Информация : UTF-8 Plain Text
Продолжительность : 15 м. 24 с.
Битрейт : 39 бит/сек
ElementCount : 159
Размер потока : 4,45 Кбайт (0%)
Заголовок : Traditional
Язык : Chinese
Default : Нет
Forced : Нет

Список серий

01. Sonnie's Edge
02. Three Robots
03. The Witness
04. Suits
05. Sucker of Souls
06. When The Yogurt Took Over
07. Beyond the Aquila Rift
08. Good Hunting
09. The Dump
10. Shape-Shifters
11. Helping Hand
12. Fish Night
13. Lucky 13
14. Zima Blue
15. Blind Spot
16. Ice Age
17. Alternate Histories
18. Secret War

Скриншоты

Скриншоты:

Скриншоты

[Цитировать]



Показать сообщения:    

Текущее время: 18-Июн 01:26

Часовой пояс: UTC + 6


Вы не можете начинать темы
Вы не можете отвечать на сообщения
Вы не можете редактировать свои сообщения
Вы не можете удалять свои сообщения
Вы не можете голосовать в опросах
Вы не можете прикреплять файлы к сообщениям
Вы не можете скачивать файлы

!ВНИМАНИЕ!
Сайт не предоставляет электронные версии произведений, а занимается лишь коллекционированием и каталогизацией ссылок, присылаемых и публикуемых на форуме нашими читателями. Если вы являетесь правообладателем какого-либо представленного материала и не желаете, чтобы ссылка на него находилась в нашем каталоге, свяжитесь с нами, и мы незамедлительно удалим ее. Файлы для обмена на трекере предоставлены пользователями сайта, и администрация не несет ответственности за их содержание. Просьба не заливать файлы, защищенные авторскими правами, а также файлы нелегального содержания!