***Уважаемые пользователи и гости !!! Сайт переехал на новый домен Torrents-club.net. Просьба изменить ваши закладки! ***
 
[ Сегодня идет свободное скачивание без начисления Download ]


Статистика раздачи
Нет
 
   
 
 
 
 
Кино - Maman (1989) Maxi-Single, Remastered, 2019, Maschina Records - Жанр: Rock
Издание: Maschina Records ‎- MASHCD-021
Источник: ley-barmaley
Продолжительность: 00:14:56
Кодек: FLAC
Битрейт: Lossless
Тип рипа: image + .cue
Треклист:
1. Maman
2. Trolleybus
3. Train De Banlieue (Live)
4. Maman (Live)
Описание: На CD сингле представлены четыре трека, два из которых - «Мама, мы все тяжело больны» и «Троллейбус», были изданы на виниловом сингле группы Кино «Maman», выпущенном во Франции в 1989-ом году. И в качестве бонуса композиции «Троллейбус» и «Мама, мы все тяжело больны» с одного из концертов группы КИНО того периода.

Отчёт EAC:

Exact Audio Copy V1.0 beta 3 from 29. August 2011
Отчёт EAC об извлечении, выполненном 22. марта 2019, 16:25
Кино / Maman (MASHCD-021)
Дисковод: ASUS DRW-1814BL Adapter: 0 ID: 0
Режим чтения : Достоверность
Использование точного потока : Да
Отключение кэша аудио : Да
Использование указателей C2 : Нет
Коррекция смещения при чтении : 6
Способность читать области Lead-in и Lead-out : Нет
Заполнение пропущенных сэмплов тишиной : Да
Удаление блоков с тишиной в начале и конце : Нет
При вычислениях CRC использовались нулевые сэмплы : Да
Интерфейс : Встроенный Win32-интерфейс для Win NT/2000
Выходной формат : Внутренние WAV-операции
Формат сэмплов : 44.100 Гц; 16 бит; стерео
TOC извлечённого CD
Трек | Старт | Длительность | Начальный сектор | Конечный сектор
---------------------------------------------------------------------
1 | 0:00.00 | 3:50.69 | 0 | 17318
2 | 3:50.69 | 2:57.12 | 17319 | 30605
3 | 6:48.06 | 3:15.41 | 30606 | 45271
4 | 10:03.47 | 4:52.24 | 45272 | 67195
Характеристики диапазона извлечения и сообщения об ошибках
Выбранный диапазон
Имя файла G:\ley-barmaley\lossless-galaxy.ru\Кино - Maman (MASHCD-021).wav
Пиковый уровень 92.2 %
Скорость извлечения 3.6 X
Качество диапазона 100.0 %
CRC теста 2CF961E2
CRC копии 2CF961E2
Копирование... OK
Ошибок не произошло
AccurateRip: сводка
Трек 1 отсутствует в базе данных
Трек 2 отсутствует в базе данных
Трек 3 отсутствует в базе данных
Трек 4 отсутствует в базе данных
Ни одного трека нет в базе AccurateRip
Конец отчёта
---- CUETools DB Plugin V2.1.3
[CTDB TOCID: RfpyOeijB6fDuRMMbka6GGUCk2A-] disk not present in database, Submit result: RfpyOeijB6fDuRMMbka6GGUCk2A- has been uploaded
==== Контрольная сумма отчёта 8844B2017C4BABA406A3FAA66B112C0C938B29AB9215DAC01A515FED8D1038B9 ====

[Цитировать]



Показать сообщения:    

Текущее время: 18-Июн 01:09

Часовой пояс: UTC + 6


Вы не можете начинать темы
Вы не можете отвечать на сообщения
Вы не можете редактировать свои сообщения
Вы не можете удалять свои сообщения
Вы не можете голосовать в опросах
Вы не можете прикреплять файлы к сообщениям
Вы не можете скачивать файлы

!ВНИМАНИЕ!
Сайт не предоставляет электронные версии произведений, а занимается лишь коллекционированием и каталогизацией ссылок, присылаемых и публикуемых на форуме нашими читателями. Если вы являетесь правообладателем какого-либо представленного материала и не желаете, чтобы ссылка на него находилась в нашем каталоге, свяжитесь с нами, и мы незамедлительно удалим ее. Файлы для обмена на трекере предоставлены пользователями сайта, и администрация не несет ответственности за их содержание. Просьба не заливать файлы, защищенные авторскими правами, а также файлы нелегального содержания!