***Уважаемые пользователи и гости !!! Сайт переехал на новый домен Torrents-club.net. Просьба изменить ваши закладки! ***
 
[ Сегодня идет свободное скачивание без начисления Download ]


Статистика раздачи
Скачал: [ 1 ]
 
   
 
 
 
 
Шедевр / Mi obra maestra
Информация о фильме:
Название: Шедевр
Оригинальное название: Mi obra maestra
Год выхода: 2018
Жанр: Комедия
Режиссер: Гастон Дюпра
В ролях: Андреа Акатто, Лукас Аранда, Рауль Аревало, Махмуд Азим, Луис Брандони, Даниэла Кац, София Кондисциани, Эмилия Дупрат, Октавио Дупрат, Моника Дюпра
О фильме: Артуро — утонченный владелец художественной галереи в Буэнос-Айресе и беспринципный арт-дилер. Ренцо — угрюмый и циничный живописец, одинаково ненавидящий арт-критиков, тусовки, журналистов и клиентов, которые хотят получить шедевр на заказ. Несмотря на разность, эти двое были лучшими друзьями и партнёрами на протяжении многих лет, пока Артуро не придумал гениальную аферу.

Страна: Аргентина, Испания
Студия: Arco Libre, Hei Films, Instituto Nacional de Cine y Artes Audiovisuales
Продолжительность: 01:44:45
Перевод: Профессиональный многоголосый | iTunes
Качество: BDRemux 1080p
Видео: MPEG-4 AVC, 1920x1080, 33.8 Mbit/s, 24 fps
Аудио #01: 48 kHz, AC3, 5.1, 384 Kbps | iTunes | RUS |
Аудио #02: 48 kHz, DTS-HD MA, 5.1, 1845 Kbps | Оригинал | SPA |

Скриншоты



Тех. инфо

General
Unique ID : 35639165058849737769242722038809787487 (0x1ACFDA802781C96492696DB9056E7C5F)
Complete name : D:Video111Mi.Obra.Maestra.2018.BDREMUX.seleZen.1080p.mkv
Format : Matroska
Format version : Version 4
File size : 26.4 GiB
Duration : 1 h 44 min
Overall bit rate mode : Variable
Overall bit rate : 36.0 Mb/s
Encoded date : UTC 2019-04-12 19:52:30
Writing application : mkvmerge v32.0.0 ('Astral Progressions') 64-bit
Writing library : libebml v1.3.7 + libmatroska v1.5.0
Video
ID : 1
Format : AVC
Format/Info : Advanced Video Codec
Format profile : High@L4.1
Format settings : CABAC / 4 Ref Frames
Format settings, CABAC : Yes
Format settings, ReFrames : 4 frames
Codec ID : V_MPEG4/ISO/AVC
Duration : 1 h 44 min
Bit rate mode : Constant
Bit rate : 33.8 Mb/s
Nominal bit rate : 36.1 Mb/s
Width : 1 920 pixels
Height : 1 080 pixels
Display aspect ratio : 16:9
Frame rate mode : Constant
Frame rate : 24.000 FPS
Color space : YUV
Chroma subsampling : 4:2:0
Bit depth : 8 bits
Scan type : Progressive
Bits/(Pixel*Frame) : 0.680
Stream size : 24.7 GiB (94%)
Language : Spanish
Default : Yes
Forced : No
Audio #1
ID : 2
Format : AC-3
Format/Info : Audio Coding 3
Commercial name : Dolby Digital
Codec ID : A_AC3
Duration : 1 h 44 min
Bit rate mode : Constant
Bit rate : 384 kb/s
Channel(s) : 6 channels
Channel layout : L R C LFE Ls Rs
Sampling rate : 48.0 kHz
Frame rate : 31.250 FPS (1536 SPF)
Bit depth : 16 bits
Compression mode : Lossy
Delay relative to video : -7 s 0 ms
Stream size : 288 MiB (1%)
Title : iTunes
Language : Russian
Service kind : Complete Main
Default : Yes
Forced : Yes
Audio #2
ID : 3
Format : DTS XLL
Format/Info : Digital Theater Systems
Commercial name : DTS-HD Master Audio
Codec ID : A_DTS
Duration : 1 h 44 min
Bit rate mode : Variable
Bit rate : 1 845 kb/s
Channel(s) : 6 channels
Channel layout : C L R Ls Rs LFE
Sampling rate : 48.0 kHz
Frame rate : 93.750 FPS (512 SPF)
Bit depth : 16 bits
Compression mode : Lossless
Delay relative to video : 8 ms
Stream size : 1.35 GiB (5%)
Title : Original
Language : Spanish
Default : No
Forced : No
Menu
00:00:00.000 : :Глава 01
00:07:59.958 : :Глава 02
00:16:10.166 : :Глава 03
00:24:22.750 : :Глава 04
00:30:54.833 : :Глава 05
00:39:39.791 : :Глава 06
00:48:34.083 : :Глава 07
01:00:43.125 : :Глава 08
01:09:41.750 : :Глава 09
01:14:34.708 : :Глава 10
01:21:08.375 : :Глава 11
01:32:39.083 : :Глава 12

[Цитировать]



Показать сообщения:    

Текущее время: 16-Июн 07:34

Часовой пояс: UTC + 6


Вы не можете начинать темы
Вы не можете отвечать на сообщения
Вы не можете редактировать свои сообщения
Вы не можете удалять свои сообщения
Вы не можете голосовать в опросах
Вы не можете прикреплять файлы к сообщениям
Вы не можете скачивать файлы

!ВНИМАНИЕ!
Сайт не предоставляет электронные версии произведений, а занимается лишь коллекционированием и каталогизацией ссылок, присылаемых и публикуемых на форуме нашими читателями. Если вы являетесь правообладателем какого-либо представленного материала и не желаете, чтобы ссылка на него находилась в нашем каталоге, свяжитесь с нами, и мы незамедлительно удалим ее. Файлы для обмена на трекере предоставлены пользователями сайта, и администрация не несет ответственности за их содержание. Просьба не заливать файлы, защищенные авторскими правами, а также файлы нелегального содержания!