***Уважаемые пользователи и гости !!! Сайт переехал на новый домен Torrents-club.net. Просьба изменить ваши закладки! ***
 
[ Сегодня идет свободное скачивание без начисления Download ]


Статистика раздачи
Скачал: [ 11 ]
 
   
 
 
 
 
Оригинальное название: Ни шагу Назад!
Год выпуска: 2019
Жанр: Военный, драма
Выпущено: Украина, ООО «Умора Продакшн»
Режиссер: Дмитрий Сорокин, Георгий Фероренко
В ролях: Валентина Попова (VII), Гела Месхи, Мария Шукшина, Фёдор Гуринец, Анастасия Зюркалова, Шорена Шония, Тамара Миронова, Себастьян Антон, Алена Медведева (II), Марина Поддубная, Светлана Косолапова, Инна Коляда, Дарья Рыбак, Елизавета Фалей, Анатолий Голуб, Дмитрий Пустильник, Сергей Бережко

Главная героиня – Тошка Лыткина – наивная деревенская девочка, которая искренне любила всех без исключения людей. Во время вражеского авианалета у нее на глазах погибла вся деревня, в том числе – ее мать и младший брат. Девочка чудом выжила, но осталась круглой сиротой: ее отца убили на фронте в первые дни войны. После этой трагедии жизнерадостная простушка Тошка научилась ненавидеть. Она решила пойти на войну, чтобы убить Гитлера и отомстить за родных. Но суровый майор по фамилии Рай посчитал 16-летнюю девушку слишком юной, чтобы отправлять на фронт. И тогда Лыткина решила доказать, что ради своей цели способна совершить невозможное, например, спрыгнуть с самолета без парашюта! Семь раз она умирала – и стреляли в нее, и расстреливали, и ядом травили, – но живучая и везучая Тошка оставалась невредимой и продолжала совершать героические подвиги в тылу врага. Такие, что не каждому герою под силу. Отчаянно сражаясь с немцами, Тошка вела свою собственную войну. Войну со смертью! И в этой войне она научилась сильнее любить – жизнь и хороших людей. Именно на войне Тошка впервые полюбила по-настоящему...

Качество: WEB-DLRip
Видео: XviD build 73, 720x400 (16:9), 25.000 fps, ~ 1400 Kbps (~ 0.190 bit/pixel)
Аудио: 48.0 kHz, AC3, 2/0 ch, 192 kbps
Продолжительность: 6 х ~ 00:48:00
Перевод: Не требуется [Русский]
Cубтитры: нет

Скриншоты

MediaInfo

General
Complete name: D:RazdachiNi.Shagu.Nazad.2019.WEB-DLRip.GeneralFilmNi.Shagu.Nazad.e01.avi
Format: AVI
Format/Info: Audio Video Interleave
File size: 557 MiB
Duration: 48 min 7 s
Overall bit rate: 1 619 kb/s
Writing application: VirtualDubMod 1.5.10.3 | www.virtualdub-fr.org || (build 2550/release)
Writing library: VirtualDubMod build 2550/release
Video
ID: 0
Format: MPEG-4 Visual
Format profile: Advanced Simple@L5
Format settings: BVOP1 / Custom Matrix
Format settings, BVOP: 1
Format settings, QPel: No
Format settings, GMC: No warppoints
Format settings, Matrix: Custom
Codec ID: XVID
Codec ID/Hint: XviD
Duration: 48 min 7 s
Bit rate: 1 417 kb/s
Width: 720 pixels
Height: 400 pixels
Display aspect ratio: 16:9
Frame rate: 25.000 FPS
Color space: YUV
Chroma subsampling: 4:2:0
Bit depth: 8 bits
Scan type: Progressive
Compression mode: Lossy
Bits/(Pixel*Frame): 0.197
Stream size: 488 MiB (88%)
Writing library: XviD 73
Audio
ID: 1
Format: AC-3
Format/Info: Audio Coding 3
Commercial name: Dolby Digital
Codec ID: 2000
Duration: 48 min 7 s
Bit rate mode: Constant
Bit rate: 192 kb/s
Channel(s): 2 channels
Channel layout: L R
Sampling rate: 48.0 kHz
Frame rate: 31.250 FPS (1536 SPF)
Bit depth: 16 bits
Compression mode: Lossy
Stream size: 66.1 MiB (12%)
Alignment: Split accross interleaves
Interleave, duration: 40 ms (1.00 video frame)
Interleave, preload duratio: 500 ms
Service kind: Complete Main
Релиз от:

[Цитировать]



Показать сообщения:    

Текущее время: 22-Май 21:02

Часовой пояс: UTC + 6


Вы не можете начинать темы
Вы не можете отвечать на сообщения
Вы не можете редактировать свои сообщения
Вы не можете удалять свои сообщения
Вы не можете голосовать в опросах
Вы не можете прикреплять файлы к сообщениям
Вы не можете скачивать файлы

!ВНИМАНИЕ!
Сайт не предоставляет электронные версии произведений, а занимается лишь коллекционированием и каталогизацией ссылок, присылаемых и публикуемых на форуме нашими читателями. Если вы являетесь правообладателем какого-либо представленного материала и не желаете, чтобы ссылка на него находилась в нашем каталоге, свяжитесь с нами, и мы незамедлительно удалим ее. Файлы для обмена на трекере предоставлены пользователями сайта, и администрация не несет ответственности за их содержание. Просьба не заливать файлы, защищенные авторскими правами, а также файлы нелегального содержания!