***Уважаемые пользователи и гости !!! Сайт переехал на новый домен Torrents-club.net. Просьба изменить ваши закладки! ***
 
[ Сегодня идет свободное скачивание без начисления Download ]


Статистика раздачи
Скачал: [ 1 ]
 
   
 
 
 
 
--Застава в горах (1953) --Информация о фильме
Название: Застава в горах
Год выхода: 1953
Жанр: Приключения
Режиссер: Константин Юдин, Владимир Герасимов
В ролях: Владлен Давыдов, Марина Кузнецова, Елена Шатрова, Сергей Гурзо (старший), Станислав Чекан, Аркадий Щербаков, Александр Суснин, Михаил Майоров, Борис Попов, Лев Лобов, Мухаммеджан Касымов, Владимир Белокуров, Олег Солюс, Алексей Краснопольский, Георгий Черноволенко
О фильме:
Из Москвы на погранзаставу приезжает старший лейтенант Лунин и назначается заместителем начальника. Он быстро включается в боевую жизнь, а тем временем банда Исмаил-бека, оплачиваемая иностранной разведкой, активизирует свои действия...
Страна: СССР
Продолжительность: 01:36:54
Перевод: не требуется
Файл
Кодек: x264
Качество: SATRip-AVC
Видео: MPEG-4 AVC, 3250 Кбит/с, 690x572@736x572
Звук: AC3, 2 ch, 192 Кбит/с

Скриншоты

Медиа-Инфо

raw [info]: 690x572p 16:15 @ 25/1 fps (cfr)
x264 [info]: using SAR=16/15
x264 [info]: using cpu capabilities: MMX2 SSE2Fast SSSE3 SSE4.2 AVX
x264 [info]: profile High, level 4.1
x264 [info]: frame I:975 Avg QP:18.97 size: 70679
x264 [info]: frame P:32149 Avg QP:21.79 size: 31374
x264 [info]: frame B:112241 Avg QP:23.68 size: 11445
==================================================================================================================
Общее
Уникальный идентификатор : 221125371237411807216783886806547372057 (0xA65B328858C9F226826E284CC21F1819)
Полное имя : D:Застава в горах_1953-SATRip-AVC.mkv
Формат : Matroska
Версия формата : Version 2
Размер файла : 2,33 Гбайт
Продолжительность : 1 ч. 36 м.
Общий поток : 3444 Кбит/сек
Дата кодирования : UTC 2015-04-08 07:18:02
Программа кодирования : mkvmerge v5.8.0 ('No Sleep / Pillow') built on Sep 2 2012 15:37:04
Библиотека кодирования : libebml v1.2.3 + libmatroska v1.3.0
Видео
Идентификатор : 1
Формат : AVC
Формат/Информация : Advanced Video Codec
Профиль формата : High@L4.1
Параметр CABAC формата : Да
Параметр ReFrames формата : 15 кадров
Идентификатор кодека : V_MPEG4/ISO/AVC
Продолжительность : 1 ч. 36 м.
Битрейт : 3250 Кбит/сек
Ширина : 690 пикселей
Высота : 572 пикселя
Соотношение сторон : 1,287
Режим частоты кадров : Постоянный
Частота кадров : 25,000 кадров/сек
Цветовое пространство : YUV
Субдискретизация насыщенности : 4:2:0
Битовая глубина : 8 бит
Тип развёртки : Прогрессивная
Бит/(Пиксели*Кадры) : 0.329
Размер потока : 2,15 Гбайт (92%)
Библиотека кодирования : x264 core 130 r2273 b3065e6
Настройки программы : cabac=1 / ref=15 / deblock=1:-2:-2 / analyse=0x3:0x133 / me=umh / subme=10 / psy=1 / psy_rd=1.05:0.17 / mixed_ref=1 / me_range=32 / chroma_me=1 / trellis=2 / 8x8dct=1 / cqm=0 / deadzone=21,11 / fast_pskip=0 / chroma_qp_offset=-3 / threads=12 / lookahead_threads=2 / sliced_threads=0 / nr=0 / decimate=0 / interlaced=0 / bluray_compat=0 / constrained_intra=0 / bframes=8 / b_pyramid=2 / b_adapt=2 / b_bias=0 / direct=3 / weightb=1 / open_gop=0 / weightp=2 / keyint=250 / keyint_min=25 / scenecut=40 / intra_refresh=0 / rc=2pass / mbtree=0 / bitrate=3250 / ratetol=1.0 / qcomp=0.65 / qpmin=0 / qpmax=39 / qpstep=4 / cplxblur=20.0 / qblur=0.5 / ip_ratio=1.40 / pb_ratio=1.30 / aq=1:1.00
Язык : English
Default : Да
Forced : Нет
Основные цвета : BT.601 PAL
Характеристики трансфера : BT.470 System B, BT.470 System G
Коэффициенты матрицы : BT.601
colour_range : Limited
Аудио
Идентификатор : 2
Формат : AC-3
Формат/Информация : Audio Coding 3
Расширение режима : CM (complete main)
Параметр Endianness формата : Big
Идентификатор кодека : A_AC3
Продолжительность : 1 ч. 36 м.
Вид битрейта : Постоянный
Битрейт : 192 Кбит/сек
Каналы : 2 канала
Расположение каналов : Front: L R
Частота : 48,0 КГц
Битовая глубина : 16 бит
Метод сжатия : С потерями
Задержка видео : 100 мс.
Размер потока : 133 Мбайт (6%)
Язык : Russian
Default : Да
Forced : Нет
Автор релиза:

[Цитировать]



Показать сообщения:    

Текущее время: 22-Май 21:25

Часовой пояс: UTC + 6


Вы не можете начинать темы
Вы не можете отвечать на сообщения
Вы не можете редактировать свои сообщения
Вы не можете удалять свои сообщения
Вы не можете голосовать в опросах
Вы не можете прикреплять файлы к сообщениям
Вы не можете скачивать файлы

!ВНИМАНИЕ!
Сайт не предоставляет электронные версии произведений, а занимается лишь коллекционированием и каталогизацией ссылок, присылаемых и публикуемых на форуме нашими читателями. Если вы являетесь правообладателем какого-либо представленного материала и не желаете, чтобы ссылка на него находилась в нашем каталоге, свяжитесь с нами, и мы незамедлительно удалим ее. Файлы для обмена на трекере предоставлены пользователями сайта, и администрация не несет ответственности за их содержание. Просьба не заливать файлы, защищенные авторскими правами, а также файлы нелегального содержания!