***Уважаемые пользователи и гости !!! Сайт переехал на новый домен Torrents-club.net. Просьба изменить ваши закладки! ***
 
[ Сегодня идет свободное скачивание без начисления Download ]


Статистика раздачи
Скачал: [ 3 ]
 
   
 
 
 
 
Триллер / Thriller
Страна: США
Производство: Divide / Conquer
Год выпуска: 2018
Жанр: ужасы, триллер
Продолжительность: 01:26:42
Режиссер: Даллас Джексон
Авторы сценария: Даллас Джексон, Кен Рэнс
В ролях: Ноа Эбботт, Джонни Александр, Джессика Уильямс, Чет Анекве, Биг Бой, Ванесса Белл Кэллоуэй, Джордан Алекса Дэвис, Джулиус Денем
Описание: Группа подростков неудачно подшутила над своим одноклассником, а тот, оттолкнув одного из шутников, случайно убил его. Теперь парень сядет, а когда выйдет, то отомстит всем, кто украл у него лучшие годы жизни...

Перевод: Профессиональный (многоголосый, закадровый) | HDRezka Studio
Субтитры: английские-Качество: WEB-DL 1080p
Формат: MKV
Видео кодек: AVC
Аудио кодек: АС3
Видео: 1916x804 (2.40:1), 23.976 fps, MPEG-4 AVC ~4 607 kbps avg
Аудио №1: 48.0 kHz, AC3 Dolby Digital, 2/0 (L,R) ch, ~192 kbps | RUS / HDRezka Studio
Аудио №2: 48.0 kHz, AC3 Dolby Digital, 3/2 (L,C,R,l,r) + LFE ch, ~384 kbps | ENG
Формат субтитров: UTF-8 Plain Text
Дата премьеры (мир): 23 сентября 2018

Media Info

General
Unique ID : 93062401965044587629510840026660307733 (0x46032AAA7FBDAB1AE89D5A046BB78315)
Complete name : Thriller.2018.WEB-DL.1080p.mkv
Format : Matroska
Format version : Version 4 / Version 2
File size : 3.14 GiB
Duration : 1 h 26 min
Overall bit rate : 5 185 kb/s
Encoded date : UTC 2019-05-21 04:23:53
Writing application : mkvmerge v20.0.0 ('I Am The Sun') 64-bit
Writing library : libebml v1.3.5 + libmatroska v1.4.8
Video
ID : 1
Format : AVC
Format/Info : Advanced Video Codec
Format profile : High@L4
Format settings : CABAC / 5 Ref Frames
Format settings, CABAC : Yes
Format settings, RefFrames : 5 frames
Codec ID : V_MPEG4/ISO/AVC
Duration : 1 h 26 min
Bit rate : 4 607 kb/s
Width : 1 916 pixels
Height : 804 pixels
Display aspect ratio : 2.40:1
Frame rate mode : Constant
Frame rate : 23.976 (24000/1001) FPS
Color space : YUV
Chroma subsampling : 4:2:0
Bit depth : 8 bits
Scan type : Progressive
Bits/(Pixel*Frame) : 0.125
Stream size : 2.79 GiB (89%)
Language : English
Default : Yes
Forced : No
Color range : Limited
Color primaries : BT.709
Transfer characteristics : BT.709
Matrix coefficients : BT.709
Audio #1
ID : 2
Format : AC-3
Format/Info : Audio Coding 3
Codec ID : A_AC3
Duration : 1 h 26 min
Bit rate mode : Constant
Bit rate : 192 kb/s
Channel(s) : 2 channels
Channel positions : Front: L R
Sampling rate : 48.0 kHz
Frame rate : 31.250 FPS (1536 SPF)
Bit depth : 16 bits
Compression mode : Lossy
Stream size : 119 MiB (4%)
Title : MVO HDRezka Studio
Language : Russian
Service kind : Complete Main
Default : Yes
Forced : No
Audio #2
ID : 3
Format : AC-3
Format/Info : Audio Coding 3
Codec ID : A_AC3
Duration : 1 h 26 min
Bit rate mode : Constant
Bit rate : 384 kb/s
Channel(s) : 6 channels
Channel positions : Front: L C R, Side: L R, LFE
Sampling rate : 48.0 kHz
Frame rate : 31.250 FPS (1536 SPF)
Bit depth : 16 bits
Compression mode : Lossy
Stream size : 238 MiB (7%)
Language : English
Service kind : Complete Main
Default : No
Forced : No
Text
ID : 4
Format : UTF-8
Codec ID : S_TEXT/UTF8
Codec ID/Info : UTF-8 Plain Text
Duration : 1 h 20 min
Bit rate : 52 b/s
Count of elements : 894
Stream size : 31.2 KiB (0%)
Language : English
Default : No
Forced : No
Menu
00:00:00.000 : en:1
00:06:35.020 : en:2
00:12:59.194 : en:3
00:18:02.413 : en:4
00:24:59.454 : en:5
00:30:35.623 : en:6
00:35:45.557 : en:7
00:41:40.995 : en:8
00:50:23.641 : en:9
00:58:02.682 : en:10
01:05:51.609 : en:11
01:11:58.642 : en:12
01:17:10.953 : en:13
01:22:17.383 : en:14

Скриншоты

[Цитировать]



Показать сообщения:    

Текущее время: 21-Сен 23:20

Часовой пояс: UTC + 6


Вы не можете начинать темы
Вы не можете отвечать на сообщения
Вы не можете редактировать свои сообщения
Вы не можете удалять свои сообщения
Вы не можете голосовать в опросах
Вы не можете прикреплять файлы к сообщениям
Вы не можете скачивать файлы

!ВНИМАНИЕ!
Сайт не предоставляет электронные версии произведений, а занимается лишь коллекционированием и каталогизацией ссылок, присылаемых и публикуемых на форуме нашими читателями. Если вы являетесь правообладателем какого-либо представленного материала и не желаете, чтобы ссылка на него находилась в нашем каталоге, свяжитесь с нами, и мы незамедлительно удалим ее. Файлы для обмена на трекере предоставлены пользователями сайта, и администрация не несет ответственности за их содержание. Просьба не заливать файлы, защищенные авторскими правами, а также файлы нелегального содержания!