***Уважаемые пользователи и гости !!! Сайт переехал на новый домен Torrents-club.net. Просьба изменить ваши закладки! ***
 
[ Сегодня идет свободное скачивание без начисления Download ]


Статистика раздачи
Нет
 
   
 
 
 
 
Формула 1. Сезон 2019. 6-й Этап. Гран-при Монако.
Гонка (26.05.2019) HDTV [H.264/1080i-LQ]
« 2019 Formula One World Championship»- Телекомпания: Матч ТВ HD
Жанр: Спорт
Комментаторы: Алексей Попов, Наталья Фабричнова
Описание: 26 мая 2019 года, воскресенье. 16:10 МСК
70-й сезон Формулы-1 2019 года
6-й Этап. Гран-при Монако. Монте-Карло (Монако)
Гонка
Кругов: 78
Длина гонки: 260,286 км
Арена: Городская трасса Монте-Карло (Монте-Карло, Монако)
Продолжительность: 01:54:23
Качество видео: HDTV
Язык озвучки: Русский, Интершум
Субтитры: отсутствуют Русские (отключаемые)
Видео: AVC/H.264, 1920x1080 (16:9), ~9345 Kbps
Аудио #1: MP2, 2 ch, 48 kHz, 192 Kbps | Русский
Аудио #2: MP2, 2 ch, 48 kHz, 192 Kbps | Интершум

Mediainfo:

Общее
Идентификатор : 1 (0x1)
Полное имя : F:\SPORT\Формула 1\F1.Round.06.Grand.Prix.de.Monaco.2019.Race.HDTV.1080i.ts
Формат : MPEG-TS
Размер файла : 8,18 Гбайт
Продолжительность : 1 ч. 54 м.
Режим общего битрейта : Переменный
Общий поток : 10,2 Мбит/сек
Видео
Идентификатор : 204 (0xCC)
Идентификатор меню : 2204 (0x89C)
Формат : AVC
Формат/Информация : Advanced Video Codec
Профиль формата : High@L4
Настройки формата : CABAC / 4 Ref Frames
Параметр CABAC формата : Да
Параметр RefFrames формата : 4 кадра
Идентификатор кодека : 27
Продолжительность : 1 ч. 54 м.
Битрейт : 9345 Кбит/сек
Ширина : 1920 пикселей
Высота : 1080 пикселей
Соотношение сторон : 16:9
Частота кадров : 25,000 кадров/сек
Стандарт вещания : Component
Цветовое пространство : YUV
Субдискретизация насыщенности : 4:2:0
Битовая глубина : 8 бит
Тип развёртки : Чересстрочная
Метод сохранения типа развёртки : Раздельные поля
Порядок развёртки : Верхнее поле первое
Бит/(Пиксели*Кадры) : 0.180
Размер потока : 7,47 Гбайт (91%)
Цветовой диапазон : Limited
Основные цвета : BT.709
Характеристики трансфера : BT.709
Коэффициенты матрицы : BT.709
Аудио #1
Идентификатор : 304 (0x130)
Идентификатор меню : 2204 (0x89C)
Формат : MPEG Audio
Версия формата : Version 1
Профиль формата : Layer 2
Идентификатор кодека : 3
Продолжительность : 1 ч. 54 м.
Вид битрейта : Постоянный
Битрейт : 192 Кбит/сек
Каналы : 2 канала
Частота : 48,0 КГц
Частота кадров : 41,667 кадра/сек (1152 SPF)
Метод сжатия : С потерями
Размер потока : 157 Мбайт (2%)
Язык : Russian
Аудио #2
Идентификатор : 305 (0x131)
Идентификатор меню : 2204 (0x89C)
Формат : MPEG Audio
Версия формата : Version 1
Профиль формата : Layer 2
Идентификатор кодека : 3
Продолжительность : 1 ч. 54 м.
Вид битрейта : Постоянный
Битрейт : 192 Кбит/сек
Каналы : 2 канала
Частота : 48,0 КГц
Частота кадров : 41,667 кадра/сек (1152 SPF)
Метод сжатия : С потерями
Размер потока : 157 Мбайт (2%)
Скриншоты:

[Цитировать]



Показать сообщения:    

Текущее время: 19-Июн 20:50

Часовой пояс: UTC + 6


Вы не можете начинать темы
Вы не можете отвечать на сообщения
Вы не можете редактировать свои сообщения
Вы не можете удалять свои сообщения
Вы не можете голосовать в опросах
Вы не можете прикреплять файлы к сообщениям
Вы не можете скачивать файлы

!ВНИМАНИЕ!
Сайт не предоставляет электронные версии произведений, а занимается лишь коллекционированием и каталогизацией ссылок, присылаемых и публикуемых на форуме нашими читателями. Если вы являетесь правообладателем какого-либо представленного материала и не желаете, чтобы ссылка на него находилась в нашем каталоге, свяжитесь с нами, и мы незамедлительно удалим ее. Файлы для обмена на трекере предоставлены пользователями сайта, и администрация не несет ответственности за их содержание. Просьба не заливать файлы, защищенные авторскими правами, а также файлы нелегального содержания!