***Уважаемые пользователи и гости !!! Сайт переехал на новый домен Torrents-club.net. Просьба изменить ваши закладки! ***
 
[ Сегодня идет свободное скачивание без начисления Download ]


Статистика раздачи
Нет
 
   
 
 
 
 
Реинкарнация / Hereditary / 2018 [4K, HEVC, HDR / Blu-Ray Remux] (2160p)
Год выпуска
: 2018
Жанр: Ужасы, триллер, драма, детектив
Выпущено: США, Palm-Star Entertainment
Режиссер: Ари Астер
Продолжительность: 02:07:25
Перевод: Дублированный, авторский
Субтитры: Русские, английские
возраст 18+
В ролях: Алекс Вулф, Гэбриел Бирн, Тони Коллетт, Милли Шапиро, Кристи Саммерхэйс, Морган Ланд, Мэллори Бехтель, Джейк Браун, Харрисон Нелл, Брианн Рейчел

О фильме:
После смерти матери Энни Грэхем в её ранее спокойном доме начинает твориться нечто необъяснимое. Теперь под угрозой жизнь её близких. С каждым днём открываются новые ужасающие секреты их семьи. Энни осознаёт, что эти кошмары берут своё начало в далёком прошлом. Сможет ли она найти ключ к тайне зловещего проклятия, которое передаётся из поколения в поколение…
Реинкарнация / Русский трейлер / 2018 / Hereditary
Техданные
Качество: Blu-Ray Remux (2160p)
Видео: HEVC, 67.6 Mбит/с, 3840x2160, 23.976 Кадр/с
Аудио: Русский (DTS-HD MA, 6 ch, 3845 Кбит/с), (DTS, 6 ch, 1509 Кбит/с), английский (DTS-HD MA, 6 ch, 3375 Кбит/c)
Релиз
Видео: MPEG-H HEVC Video / 67636 kbps / 3840x2160 / 23.976 fps / 16:9 / Main 10 @ Level 5.1 @ High / 4:2:0 / 10 bits / HDR10 / BT.2020 /
Аудио 1: Russian DTS-HD Master Audio / 5.1 / 48 kHz / 3845 kbps / 24-bit (DTS Core: 5.1 / 48 kHz / 1509 kbps / 24-bit) |Dub, Blu-Ray|
Аудио 2: Russian DTS / 5.1 / 48 kHz / 1509 kbps / 24-bit |С. Визгунов|
Аудио 3: English DTS-HD Master Audio / 5.1 / 48 kHz / 3375 kbps / 24-bit (DTS Core: 5.1 / 48 kHz / 1509 kbps / 24-bit) |original|
Субтитры: русские (R5, Focs), английские (full, SDH)

MediaInfo:

Уникальный идентификатор                 : 265589383490924557602870306240372526591 (0xC7CEA797A4D3F38390E7DA340E7DCDFF)
Полное имя                               : H:\UHD\Реинкарнация.2018.UHD.Blu-Ray.Remux.2160p.mkv
Формат                                   : Matroska
Версия формата                           : Version 4
Размер файла                             : 68,0 Гбайт
Продолжительность                        : 2 ч. 7 м.
Режим общего битрейта                    : Переменный
Общий поток                              : 76,4 Мбит/сек
Дата кодирования                         : UTC 2019-06-10 16:52:59
Программа кодирования                    : mkvmerge v34.0.0 ('Sight and Seen') 64-bit
Библиотека кодирования                   : libebml v1.3.7 + libmatroska v1.5.0
Attachments                              : poster.jpg
Видео
Идентификатор                            : 1
Формат                                   : HEVC
Формат/Информация                        : High Efficiency Video Coding
Коммерческое название                    : HDR10
Профиль формата                          : Main 10@L5.1@High
Идентификатор кодека                     : V_MPEGH/ISO/HEVC
Продолжительность                        : 2 ч. 7 м.
Битрейт                                  : 67,6 Мбит/сек
Ширина                                   : 3840 пикселей
Высота                                   : 2160 пикселей
Соотношение сторон                       : 16:9
Режим частоты кадров                     : Постоянный
Частота кадров                           : 23,976 (24000/1001) кадра/сек
Цветовое пространство                    : YUV
Субдискретизация насыщенности            : 4:2:0 (Type 2)
Битовая глубина                          : 10 бит
Бит/(Пиксели*Кадры)                      : 0.340
Размер потока                            : 60,2 Гбайт (89%)
Default                                  : Да
Forced                                   : Нет
Цветовой диапазон                        : Limited
Основные цвета                           : BT.2020
Характеристики трансфера                 : PQ
Коэффициенты матрицы                     : BT.2020 non-constant
MasteringDisplay_ColorPrimaries          : Display P3
MasteringDisplay_Luminance               : min: 0.0001 cd/m2, max: 1000 cd/m2
MaxCLL                                   : 901 cd/m2
MaxFALL                                  : 290 cd/m2
Аудио #1
Идентификатор                            : 2
Формат                                   : DTS XLL
Формат/Информация                        : Digital Theater Systems
Коммерческое название                    : DTS-HD Master Audio
Идентификатор кодека                     : A_DTS
Продолжительность                        : 2 ч. 7 м.
Вид битрейта                             : Переменный
Битрейт                                  : 3845 Кбит/сек
Каналы                                   : 6 каналов
Channel layout                           : C L R Ls Rs LFE
Частота                                  : 48,0 КГц
Частота кадров                           : 93,750 кадра/сек (512 SPF)
Битовая глубина                          : 24 бит
Метод сжатия                             : Без потерь
Размер потока                            : 3,42 Гбайт (5%)
Заголовок                                : Dub, Blu-Ray
Язык                                     : Russian
Default                                  : Да
Forced                                   : Нет
Аудио #2
Идентификатор                            : 3
Формат                                   : DTS
Формат/Информация                        : Digital Theater Systems
Идентификатор кодека                     : A_DTS
Продолжительность                        : 2 ч. 7 м.
Вид битрейта                             : Постоянный
Битрейт                                  : 1509 Кбит/сек
Каналы                                   : 6 каналов
Channel layout                           : C L R Ls Rs LFE
Частота                                  : 48,0 КГц
Частота кадров                           : 93,750 кадра/сек (512 SPF)
Битовая глубина                          : 24 бит
Метод сжатия                             : С потерями
Размер потока                            : 1,34 Гбайт (2%)
Заголовок                                : С. Визгунов
Язык                                     : Russian
Default                                  : Нет
Forced                                   : Нет
Аудио #3
Идентификатор                            : 4
Формат                                   : DTS XLL
Формат/Информация                        : Digital Theater Systems
Коммерческое название                    : DTS-HD Master Audio
Идентификатор кодека                     : A_DTS
Продолжительность                        : 2 ч. 7 м.
Вид битрейта                             : Переменный
Битрейт                                  : 3375 Кбит/сек
Каналы                                   : 6 каналов
Channel layout                           : C L R Ls Rs LFE
Частота                                  : 48,0 КГц
Частота кадров                           : 93,750 кадра/сек (512 SPF)
Битовая глубина                          : 24 бит
Метод сжатия                             : Без потерь
Размер потока                            : 3,00 Гбайт (4%)
Язык                                     : English
Default                                  : Нет
Forced                                   : Нет
Текст #1
Идентификатор                            : 5
Формат                                   : UTF-8
Идентификатор кодека                     : S_TEXT/UTF8
Идентификатор кодека/Информация          : UTF-8 Plain Text
Продолжительность                        : 2 ч. 0 м.
Битрейт                                  : 55 бит/сек
ElementCount                             : 996
Размер потока                            : 49,0 Кбайт (0%)
Заголовок                                : R5
Язык                                     : Russian
Default                                  : Нет
Forced                                   : Нет
Текст #2
Идентификатор                            : 6
Формат                                   : UTF-8
Идентификатор кодека                     : S_TEXT/UTF8
Идентификатор кодека/Информация          : UTF-8 Plain Text
Продолжительность                        : 2 ч. 0 м.
Битрейт                                  : 56 бит/сек
ElementCount                             : 1018
Размер потока                            : 49,9 Кбайт (0%)
Заголовок                                : Focs
Язык                                     : Russian
Default                                  : Нет
Forced                                   : Нет
Текст #3
Идентификатор                            : 7
Формат                                   : UTF-8
Идентификатор кодека                     : S_TEXT/UTF8
Идентификатор кодека/Информация          : UTF-8 Plain Text
Продолжительность                        : 2 ч. 0 м.
Битрейт                                  : 32 бит/сек
ElementCount                             : 1003
Размер потока                            : 28,9 Кбайт (0%)
Заголовок                                : full
Язык                                     : English
Default                                  : Нет
Forced                                   : Нет
Текст #4
Идентификатор                            : 8
Формат                                   : UTF-8
Идентификатор кодека                     : S_TEXT/UTF8
Идентификатор кодека/Информация          : UTF-8 Plain Text
Продолжительность                        : 2 ч. 0 м.
Битрейт                                  : 39 бит/сек
ElementCount                             : 1247
Размер потока                            : 34,9 Кбайт (0%)
Заголовок                                : SDH
Язык                                     : English
Default                                  : Нет
Forced                                   : Нет
Меню
00:00:00.000                             : :Chapter 01
00:06:03.321                             : :Chapter 02
00:13:34.146                             : :Chapter 03
00:23:01.129                             : :Chapter 04
00:26:31.172                             : :Chapter 05
00:34:57.762                             : :Chapter 06
00:40:56.495                             : :Chapter 07
00:47:23.090                             : :Chapter 08
00:54:34.396                             : :Chapter 09
01:04:02.880                             : :Chapter 10
01:08:55.631                             : :Chapter 11
01:19:35.854                             : :Chapter 12
01:25:09.395                             : :Chapter 13
01:32:50.314                             : :Chapter 14
01:40:01.412                             : :Chapter 15
01:53:21.377                             : :Chapter 16

Скриншоты

[Цитировать]



Показать сообщения:    

Текущее время: 16-Сен 20:23

Часовой пояс: UTC + 6


Вы не можете начинать темы
Вы не можете отвечать на сообщения
Вы не можете редактировать свои сообщения
Вы не можете удалять свои сообщения
Вы не можете голосовать в опросах
Вы не можете прикреплять файлы к сообщениям
Вы не можете скачивать файлы

!ВНИМАНИЕ!
Сайт не предоставляет электронные версии произведений, а занимается лишь коллекционированием и каталогизацией ссылок, присылаемых и публикуемых на форуме нашими читателями. Если вы являетесь правообладателем какого-либо представленного материала и не желаете, чтобы ссылка на него находилась в нашем каталоге, свяжитесь с нами, и мы незамедлительно удалим ее. Файлы для обмена на трекере предоставлены пользователями сайта, и администрация не несет ответственности за их содержание. Просьба не заливать файлы, защищенные авторскими правами, а также файлы нелегального содержания!