***Уважаемые пользователи и гости !!! Сайт переехал на новый домен Torrents-club.net. Просьба изменить ваши закладки! ***
 
[ Сегодня идет свободное скачивание без начисления Download ]


Статистика раздачи
Нет
 
   
 
 
 
 
Rammstein - Live Aus Berlin (1999) Reissue, 2014, ООО «Юниверсал Мьюзик» - Жанр: Electronic, Rock, Industrial, Heavy Metal
Издание: ООО «Юниверсал Мьюзик» ‎– 0731454759090
Источник: DORAEMON2
Продолжительность: 01:18:22
Кодек: FLAC
Битрейт: Lossless
Тип рипа: tracks + .cue
Треклист:
01.Spiel mit mir (5:22)
02.Bestrafe mich (3:49)
03.Weißes Fleisch (4:35)
04.Sehnsucht (4:25)
05.Asche zu Asche (3:24)
06.Wilder Wein (5:17)
07.Heirate mich (6:16)
08.Du riechst so gut (5:24)
09.Du hast (4:27)
10.Bück dich (5:57)
11.Engel (5:57)
12.Rammstein (5:29)
13.Laichzeit (5:14)
14.Wollt ihr das Bett in Flammen sehen? (5:52)
15.Seemann (6:54)

Дополнительная информация:

Live Aus Berlin («Из Берлина вживую») — первый концертный альбом немецкой рок-группы Rammstein, вышедший в 1999 году на лейбле Motor Music GMBH.
Сертификация :
Германия - 2005 год - Золото - Продано более 100000 копий
Швейцария - 2004 год - Платина - Продано более 30000 копий

Отчёт EAC:

Exact Audio Copy V1.3 from 2. September 2016
Отчёт EAC об извлечении, выполненном 10. апреля 2019, 20:20
Rammstein / Live aus Berlin
Дисковод: HL-DT-STDVDRAM GUE1N Adapter: 1 ID: 1
Режим чтения : Достоверность
Использование точного потока : Да
Отключение кэша аудио : Да
Использование указателей C2 : Нет
Коррекция смещения при чтении : 6
Способность читать области Lead-in и Lead-out : Нет
Заполнение пропущенных сэмплов тишиной : Да
Удаление блоков с тишиной в начале и конце : Нет
При вычислениях CRC использовались нулевые сэмплы : Да
Интерфейс : Встроенный Win32-интерфейс для Win NT/2000
Обработка зазоров : Добавлено к предыдущему треку
Выходной формат : Пользовательский кодировщик
Выбранный битрейт : 1024 kBit/s
Качество : Высокий
Добавление ID3-тега : Нет
Утилита сжатия : C:\Program Files (x86)\Exact Audio Copy\FLAC\FLAC.EXE
Дополнительные параметры : -8 -V -T "ARTIST=%artist%" -T "TITLE=%title%" -T "ALBUM=%albumtitle%" -T "DATE=%year%" -T "TRACKNUMBER=%tracknr%" -T "GENRE=%genre%" -T "COMMENT=%comment%" -T "BAND=%albuminterpret%" -T "ALBUMARTIST=%albuminterpret%" -T "COMPOSER=%composer%" %haslyrics%--tag-from-file=LYRICS="%lyricsfile%"%haslyrics% -T "DISCNUMBER=%cdnumber%" -T "TOTALDISCS=%totalcds%" -T "TOTALTRACKS=%numtracks%" %hascover%--picture="%coverfile%"%hascover% %source% -o %dest%
TOC извлечённого CD
Трек | Старт | Длительность | Начальный сектор | Конечный сектор
---------------------------------------------------------------------
1 | 0:00.00 | 5:22.65 | 0 | 24214
2 | 5:22.65 | 3:49.25 | 24215 | 41414
3 | 9:12.15 | 4:35.70 | 41415 | 62109
4 | 13:48.10 | 4:25.10 | 62110 | 81994
5 | 18:13.20 | 3:24.70 | 81995 | 97364
6 | 21:38.15 | 5:17.10 | 97365 | 121149
7 | 26:55.25 | 6:16.50 | 121150 | 149399
8 | 33:12.00 | 5:24.70 | 149400 | 173769
9 | 38:36.70 | 4:27.38 | 173770 | 193832
10 | 43:04.33 | 5:57.65 | 193833 | 220672
11 | 49:02.23 | 5:57.00 | 220673 | 247447
12 | 54:59.23 | 5:29.70 | 247448 | 272192
13 | 60:29.18 | 5:14.42 | 272193 | 295784
14 | 65:43.60 | 5:52.68 | 295785 | 322252
15 | 71:36.53 | 6:54.25 | 322253 | 353327
Трек 1
Имя файла C:\Users\77118\Music\Rammstein - Live Aus Berlin\01 Spiel mit mir.wav
Длина предзазора 0:00:02.00
Пиковый уровень 99.9 %
Скорость извлечения 3.0 X
Качество трека 100.0 %
CRC теста F0B03740
CRC копии F0B03740
Точность не определена (достоверность 4) [E1499188], AccurateRip вернул [E1BB29E2] (AR v2)
Копирование... OK
Трек 2
Имя файла C:\Users\77118\Music\Rammstein - Live Aus Berlin\02 Bestrafe mich.wav
Пиковый уровень 99.9 %
Скорость извлечения 3.3 X
Качество трека 100.0 %
CRC теста 50AC651A
CRC копии 50AC651A
Точность не определена (достоверность 4) [8F250AF7], AccurateRip вернул [105064FB] (AR v2)
Копирование... OK
Трек 3
Имя файла C:\Users\77118\Music\Rammstein - Live Aus Berlin\03 Weisses fleisch.wav
Пиковый уровень 99.9 %
Скорость извлечения 3.6 X
Качество трека 100.0 %
CRC теста 6C729B4E
CRC копии 6C729B4E
Точность не определена (достоверность 4) [A3BAE79D], AccurateRip вернул [6BA45084] (AR v2)
Копирование... OK
Трек 4
Имя файла C:\Users\77118\Music\Rammstein - Live Aus Berlin\04 Sehnsucht.wav
Пиковый уровень 99.9 %
Скорость извлечения 3.9 X
Качество трека 100.0 %
CRC теста 3718DD07
CRC копии 3718DD07
Точность не определена (достоверность 4) [774910E8], AccurateRip вернул [6C4D2134] (AR v2)
Копирование... OK
Трек 5
Имя файла C:\Users\77118\Music\Rammstein - Live Aus Berlin\05 Asche zu asche.wav
Пиковый уровень 99.9 %
Скорость извлечения 4.0 X
Качество трека 100.0 %
CRC теста 74827932
CRC копии 74827932
Точность не определена (достоверность 4) [4159D4D8], AccurateRip вернул [3E43D7DD] (AR v2)
Копирование... OK
Трек 6
Имя файла C:\Users\77118\Music\Rammstein - Live Aus Berlin\06 Wilder wein.wav
Пиковый уровень 91.2 %
Скорость извлечения 4.4 X
Качество трека 100.0 %
CRC теста 33009D08
CRC копии 33009D08
Точность не определена (достоверность 4) [4187D170], AccurateRip вернул [63CE90C5] (AR v2)
Копирование... OK
Трек 7
Имя файла C:\Users\77118\Music\Rammstein - Live Aus Berlin\07 Heirate mich.wav
Пиковый уровень 99.9 %
Скорость извлечения 4.7 X
Качество трека 100.0 %
CRC теста 91E9D749
CRC копии 91E9D749
Точность не определена (достоверность 4) [EB9138A0], AccurateRip вернул [AE7BC61B] (AR v2)
Копирование... OK
Трек 8
Имя файла C:\Users\77118\Music\Rammstein - Live Aus Berlin\08 Du riechst so gut.wav
Пиковый уровень 99.9 %
Скорость извлечения 5.0 X
Качество трека 100.0 %
CRC теста F40B504B
CRC копии F40B504B
Точность не определена (достоверность 4) [D49D416C], AccurateRip вернул [A59A14B4] (AR v2)
Копирование... OK
Трек 9
Имя файла C:\Users\77118\Music\Rammstein - Live Aus Berlin\09 Du hast.wav
Пиковый уровень 99.9 %
Скорость извлечения 5.0 X
Качество трека 100.0 %
CRC теста AA2F419B
CRC копии AA2F419B
Точность не определена (достоверность 4) [1331E5E6], AccurateRip вернул [B8CA63C4] (AR v2)
Копирование... OK
Трек 10
Имя файла C:\Users\77118\Music\Rammstein - Live Aus Berlin\10 Bueck dich.wav
Пиковый уровень 99.9 %
Скорость извлечения 5.0 X
Качество трека 99.9 %
CRC теста 9A2BA69E
CRC копии 9A2BA69E
Точность не определена (достоверность 4) [8B89CC78], AccurateRip вернул [D3580CAC] (AR v2)
Копирование... OK
Трек 11
Имя файла C:\Users\77118\Music\Rammstein - Live Aus Berlin\11 Engel.wav
Пиковый уровень 99.9 %
Скорость извлечения 5.7 X
Качество трека 100.0 %
CRC теста 5C1BB80A
CRC копии 5C1BB80A
Точность не определена (достоверность 4) [510ABF80], AccurateRip вернул [2B71A5FF] (AR v2)
Копирование... OK
Трек 12
Имя файла C:\Users\77118\Music\Rammstein - Live Aus Berlin\12 Rammstein.wav
Пиковый уровень 99.9 %
Скорость извлечения 5.8 X
Качество трека 100.0 %
CRC теста DDAE6D0E
CRC копии DDAE6D0E
Точность не определена (достоверность 4) [201353E2], AccurateRip вернул [081F6B0B] (AR v2)
Копирование... OK
Трек 13
Имя файла C:\Users\77118\Music\Rammstein - Live Aus Berlin\13 Laichzeit.wav
Пиковый уровень 99.9 %
Скорость извлечения 5.9 X
Качество трека 100.0 %
CRC теста 1E7F644B
CRC копии 1E7F644B
Точность не определена (достоверность 4) [A61FC358], AccurateRip вернул [A466FFBC] (AR v2)
Копирование... OK
Трек 14
Имя файла C:\Users\77118\Music\Rammstein - Live Aus Berlin\14 Wollt ihr das bett in flammen sehen.wav
Пиковый уровень 99.9 %
Скорость извлечения 5.7 X
Качество трека 99.9 %
CRC теста 1505135B
CRC копии 1505135B
Точность не определена (достоверность 4) [CE6B67A6], AccurateRip вернул [D977E7FD] (AR v2)
Копирование... OK
Трек 15
Имя файла C:\Users\77118\Music\Rammstein - Live Aus Berlin\15 Seemann.wav
Пиковый уровень 99.9 %
Скорость извлечения 5.9 X
Качество трека 99.9 %
CRC теста E3F60852
CRC копии E3F60852
Точность не определена (достоверность 3) [5B966854], AccurateRip вернул [4C85561E] (AR v2)
Копирование... OK
Ни один трек не прошёл проверки на точность
В вашей базе может быть иной вариант штамповки диска
Ошибок не произошло
Конец отчёта
---- CUETools DB Plugin V2.1.6
[CTDB TOCID: oYHPje9PBhQMkSieHfBw3E0CGbI-] found
Submit result: already submitted
Track | CTDB Status
1 | (622/636) Accurately ripped
2 | (624/636) Accurately ripped
3 | (623/636) Accurately ripped
4 | (625/636) Accurately ripped
5 | (626/636) Accurately ripped
6 | (621/636) Accurately ripped, or (3/636) differs in 68 samples @01:15:10,01:16:24-01:16:25,01:20:23,01:21:08-01:21:09
7 | (620/636) Accurately ripped
8 | (622/636) Accurately ripped, or (2/636) differs in 170 samples @04:59:35-04:59:36,05:02:19,05:04:60-05:04:61
9 | (622/636) Accurately ripped
10 | (621/636) Accurately ripped
11 | (620/636) Accurately ripped
12 | (618/636) Accurately ripped
13 | (616/636) Accurately ripped, or (3/636) differs in 382 samples @01:38:46,01:43:65,01:44:32,01:44:53,01:47:15,01:49:52,01:51:69,01:53:43,01:55:17,01:55:59,01:56:05-01:56:06,01:56:26,01:56:67-01:56:68,01:58:00-01:58:01,01:58:21,01:58:42-01:58:43,01:59:72,02:03:00,02:05:59,02:09:29,02:10:37-02:10:38
14 | (614/636) Accurately ripped, or (4/636) differs in 24 samples @05:38:33,05:46:45
15 | (594/636) Accurately ripped, or (4/636) differs in 95 samples @00:04:14,00:21:53,00:52:11,01:22:06,01:35:67,04:56:22, or (1/636) differs in 28 samples @06:02:65
==== Контрольная сумма отчёта E4BB7624E252A879AF75C8AAA621CC3C07C364626AE61E86FEEE27B0D5BF9108 ====

[Цитировать]



Показать сообщения:    

Текущее время: 19-Июл 07:30

Часовой пояс: UTC + 6


Вы не можете начинать темы
Вы не можете отвечать на сообщения
Вы не можете редактировать свои сообщения
Вы не можете удалять свои сообщения
Вы не можете голосовать в опросах
Вы не можете прикреплять файлы к сообщениям
Вы не можете скачивать файлы

!ВНИМАНИЕ!
Сайт не предоставляет электронные версии произведений, а занимается лишь коллекционированием и каталогизацией ссылок, присылаемых и публикуемых на форуме нашими читателями. Если вы являетесь правообладателем какого-либо представленного материала и не желаете, чтобы ссылка на него находилась в нашем каталоге, свяжитесь с нами, и мы незамедлительно удалим ее. Файлы для обмена на трекере предоставлены пользователями сайта, и администрация не несет ответственности за их содержание. Просьба не заливать файлы, защищенные авторскими правами, а также файлы нелегального содержания!