***Уважаемые пользователи и гости !!! Сайт переехал на новый домен Torrents-club.net. Просьба изменить ваши закладки! ***
 
[ Сегодня идет свободное скачивание без начисления Download ]


Статистика раздачи
Скачал: [ 1 ]
 
   
 
 
 
 
--Шутки в сторону 2: Миссия в Майами / Le flic de Belleville (2018) BDRip 720p | 60 fps-- Год выпуска: 2018
Страна: Франция
Жанр: комедия
Продолжительность: 01:51:05
Перевод: Дублированный | iTunes
Субтитры: Фанцузские
Режиссер: Рашид Бушареб
В ролях:
Омар Си (Sebastian «Baaba» Bouchard), Луис Гусман (Ricardo Garcia), Биюна (Zohra), Дьем Нгуйен (Lin), Эрик Эбони (Ladji Touré), Исака Савадого (Aboulaye), Маймуна Гуйе (Iman Touré), Жюли Ферье (La consul), Франк Гастамбид (Roland), Себастьен Вандерберг (Max Giraud), Кристофер Жюрне (Patrice Boyer), Майк Бенитез (Captain Mendez)
Описание:
Безбашенный коп-раздолбай приезжает в рай на Земле - Майами, где знакомится с еще более чокнутым местным копом. Эти двое нарушат все возможные законы и устроят настоящий беспредел, чтобы раскрыть глобальную преступную сеть, опутавшую с виду спокойный и респектабельный Майами.
Рейтинг:

Качество: BDRip 720p
Формат: MKV
Видео: AVC | 1280 x 536 | 59.940 fps | 11.9 Мбит/сек
Аудио #1: AC-3 | 5.1 | 48 kHz | 384 Кбит/сек | 16 bit | Дубляж (iTunes) | RUS
Аудио #2: DTS-HD MA | 5.1 | 48 kHz | 1509 Кбит/сек | 24 bit | Оригинал | French
Навигация по главам: есть

MediaInfo

General
Unique ID : 316350543811478515428316447922588218375 (0xEDFEE605BB863779FE2EA10F8CD7F407)
Complete name : D:\2018 Шутки в сторону 2 - Миссия в Майами BDRip 720p 60 fps.mkv
Format : Matroska
Format version : Version 4 / Version 2
File size : 11.0 GiB
Duration : 1h 51mn
Overall bit rate mode : Variable
Overall bit rate : 14.1 Mbps
Movie name : Шутки в сторону 2 - Миссия в Майами / Le Flic De Belleville
Encoded date : UTC 2019-04-07 12:09:19
Writing application : mkvmerge v22.0.0 ('At The End Of The World') 64-bit
Writing library : libebml v1.3.5 + libmatroska v1.4.8
DURATION : 01:43:41.966000000
NUMBER_OF_FRAMES : 785
NUMBER_OF_BYTES : 20700
_STATISTICS_WRITING_APP : mkvmerge v22.0.0 ('At The End Of The World') 64-bit
_STATISTICS_WRITING_DATE_UTC : 2019-04-07 12:09:19
_STATISTICS_TAGS : BPS DURATION NUMBER_OF_FRAMES NUMBER_OF_BYTES
Video #1
ID : 1
Format : AVC
Format/Info : Advanced Video Codec
Format profile : High@L4.1
Format settings, CABAC : Yes
Format settings, ReFrames : 8 frames
Codec ID : V_MPEG4/ISO/AVC
Duration : 1h 51mn
Bit rate : 11.9 Mbps
Nominal bit rate : 10 000 Kbps
Width : 1 280 pixels
Height : 536 pixels
Display aspect ratio : 2.40:1
Frame rate : 59.940 fps
Color space : YUV
Chroma subsampling : 4:2:0
Bit depth : 8 bits
Scan type : Progressive
Bits/(Pixel*Frame) : 0.289
Stream size : 9.25 GiB (84%)
Writing library : x264 core 146 r2538 121396c
Encoding settings : cabac=1 / ref=8 / deblock=1:-2:-2 / analyse=0x3:0x113 / me=umh / subme=9 / psy=1 / psy_rd=1.00:0.25 / mixed_ref=1 / me_range=32 / chroma_me=1 / trellis=2 / 8x8dct=1 / cqm=0 / deadzone=6,6 / fast_pskip=1 / chroma_qp_offset=-4 / threads=12 / lookahead_threads=2 / sliced_threads=0 / nr=0 / decimate=0 / interlaced=0 / bluray_compat=0 / constrained_intra=0 / bframes=3 / b_pyramid=2 / b_adapt=2 / b_bias=0 / direct=3 / weightb=1 / open_gop=0 / weightp=2 / keyint=600 / keyint_min=60 / scenecut=40 / intra_refresh=0 / rc_lookahead=60 / rc=2pass / mbtree=1 / bitrate=10000 / ratetol=1.0 / qcomp=0.80 / qpmin=0 / qpmax=69 / qpstep=4 / cplxblur=20.0 / qblur=0.5 / vbv_maxrate=50000 / vbv_bufsize=50000 / nal_hrd=none / filler=0 / ip_ratio=1.10 / aq=1:0.50
Language : English
Default : Yes
Forced : No
DURATION : 01:51:18.606000000
NUMBER_OF_FRAMES : 400316
NUMBER_OF_BYTES : 8334910528
_STATISTICS_WRITING_APP : mkvmerge v22.0.0 ('At The End Of The World') 64-bit
_STATISTICS_WRITING_DATE_UTC : 2019-04-07 12:09:19
_STATISTICS_TAGS : BPS DURATION NUMBER_OF_FRAMES NUMBER_OF_BYTES
Audio #2
ID : 2
Format : AC-3
Format/Info : Audio Coding 3
Mode extension : CM (complete main)
Format settings, Endianness : Big
Codec ID : A_AC3
Duration : 1h 51mn
Bit rate mode : Constant
Bit rate : 384 Kbps
Channel(s) : 6 channels
Channel positions : Front: L C R, Side: L R, LFE
Sampling rate : 48.0 KHz
Bit depth : 16 bits
Compression mode : Lossy
Stream size : 306 MiB (3%)
Title : iTunes
Language : Russian
Default : Yes
Forced : Yes
Audio #3
ID : 3
Format : DTS
Format/Info : Digital Theater Systems
Format profile : MA / Core
Codec ID : A_DTS
Duration : 1h 51mn
Bit rate mode : Variable
Bit rate : 1 561 Kbps / 1 510 Kbps
Channel(s) : 6 channels
Channel positions : Front: L C R, Side: L R, LFE
Sampling rate : 48.0 KHz
Bit depth : 24 bits
Compression mode : Lossless / Lossy
Title : Original
Language : French
Default : No
Forced : No
Text #4
ID : 4
Format : UTF-8
Codec ID : S_TEXT/UTF8
Codec ID/Info : UTF-8 Plain Text
Language : French
Default : No
Forced : No
Menu
00:00:00.000 : :Chapitre 01
00:08:32.178 : :Chapitre 02
00:18:40.994 : :Chapitre 03
00:29:11.124 : :Chapitre 04
00:40:28.175 : :Chapitre 05
00:49:32.010 : :Chapitre 06
00:59:33.444 : :Chapitre 07
01:09:57.109 : :Chapitre 08
01:19:50.494 : :Chapitre 09
01:30:13.741 : :Chapitre 10
01:38:14.388 : :Chapitre 11
01:48:23.163 : :Chapitre 12

Скриншоты

[Цитировать]



Показать сообщения:    

Текущее время: 19-Окт 11:02

Часовой пояс: UTC + 6


Вы не можете начинать темы
Вы не можете отвечать на сообщения
Вы не можете редактировать свои сообщения
Вы не можете удалять свои сообщения
Вы не можете голосовать в опросах
Вы не можете прикреплять файлы к сообщениям
Вы не можете скачивать файлы

!ВНИМАНИЕ!
Сайт не предоставляет электронные версии произведений, а занимается лишь коллекционированием и каталогизацией ссылок, присылаемых и публикуемых на форуме нашими читателями. Если вы являетесь правообладателем какого-либо представленного материала и не желаете, чтобы ссылка на него находилась в нашем каталоге, свяжитесь с нами, и мы незамедлительно удалим ее. Файлы для обмена на трекере предоставлены пользователями сайта, и администрация не несет ответственности за их содержание. Просьба не заливать файлы, защищенные авторскими правами, а также файлы нелегального содержания!