***Уважаемые пользователи и гости !!! Сайт переехал на новый домен Torrents-club.net. Просьба изменить ваши закладки! ***
 
[ Сегодня идет свободное скачивание без начисления Download ]


Статистика раздачи
Скачал: [ 1 ]
 
   
 
 
 
 
Алита: Боевой ангел / Alita: Battle Angel (2019) [4K, HEVC, HDR / WEB-DL] (2160p) Год выпуска: 2019
Жанр: Фантастика, боевик, триллер, мелодрама, приключения
Выпущено: Канада, Аргентина, США, Twentieth Century Fox, Lightstorm Entertainment, Troublemaker Studios
Режиссер: Роберт Родригес
Продолжительность: 02:01:57
Перевод: Профессиональный многоголосый
Субтитры: Русские, английские
возраст 16+

В ролях:
Роза Салазар, Кристоф Вальц, Дженнифер Коннелли, Махершала Али, Эд Скрейн, Джеки Эрл Хейли, Кин Джонсон, Хорхе Лендеборг мл., Лана Кондор, Идара Виктор

О фильме
: Действие фильма происходит через 300 лет после Великой войны в XXVI веке. Доктор Идо находит останки женщины-киборга. После починки киборг ничего не помнит, но обнаруживает, что в состоянии пользоваться боевыми приемами киборгов. Начинаются поиски утерянных воспоминаний.
Алита: Боевой ангел | Официальный трейлер | HD
Техданные
Качество: WEB-DL (2160p)
Видео: HEVC, 24.5 Mбит/с, 3840x2160, 23.976 кадр/с, 10 Бит
Аудио: Русский (AC3, 2 ch, 192 Кбит/с), английский (E-AC3+Atmos, 6 ch, 576 Кбит/с)

Релиз

Мастер 5
Формат: Main 10@L5.1@High_x265_HDR10
Цветовой праймериз: BT.2020
Характеристики передачи: PQ
Матричные коэффициенты: BT.2020
Освоение основных цветов дисплея: Дисплей P3
Освоение яркости дисплея: мин: 0.0050 cd/m2, max: 1000 cd/m2
Аудио 1: AC3, 2 ch, 192 Kbps - Русский (Профессиональный многоголосый закадровый - CВ Студия)
Аудио 2: E-AC3+Atmos, 6 ch, 576 Кбит/с - Английский
Субтитры: Русские, Английские
Реклама: Отсутствует

MediaInfo:

Общее
Уникальный идентификатор                 : 220603461741277480633333290852289881419 (0xA5F6AE6862C44FC581AF2A0BF8E4254B)
Полное имя                               : D:\Мои раздачи\Передел\Alita.Battle.Angel.2019.2160p.WEB-DL.x265.10bit.HDR.Master5.mkv
Формат                                   : Matroska
Версия формата                           : Version 4 / Version 2
Размер файла                             : 21,5 Гбайт
Продолжительность                        : 2 ч. 1 м.
Общий поток                              : 25,2 Мбит/сек
Название фильма                          :  StrangerAlita.Battle.Angel.2019.2160p.WEB-DL.x265.10bit.HDR.Master5
Дата кодирования                         : UTC 2019-07-09 15:01:35
Программа кодирования                    : mkvmerge v7.9.0 ('Birds') 64bit
Библиотека кодирования                   : libebml v1.3.1 + libmatroska v1.4.2
Видео
Идентификатор                            : 1
Формат                                   : HEVC
Формат/Информация                        : High Efficiency Video Coding
Коммерческое название                    : HDR10
Профиль формата                          : Main 10@L5@High
Идентификатор кодека                     : V_MPEGH/ISO/HEVC
Продолжительность                        : 2 ч. 1 м.
Битрейт                                  : 24,5 Мбит/сек
Ширина                                   : 3840 пикселей
Высота                                   : 1608 пикселей
Высота оригинала                         : 2160 пикселей
Соотношение сторон                       : 16:9
Режим частоты кадров                     : Постоянный
Частота кадров                           : 23,976 (24000/1001) кадра/сек
Цветовое пространство                    : YUV
Субдискретизация насыщенности            : 4:2:0 (Type 2)
Битовая глубина                          : 10 бит
Бит/(Пиксели*Кадры)                      : 0.165
Размер потока                            : 20,9 Гбайт (97%)
Заголовок                                : Alita.Battle.Angel.2019.2160p.WEB-DL.x265.10bit.HDR.Master5
Язык                                     : English
Default                                  : Да
Forced                                   : Нет
Цветовой диапазон                        : Limited
Основные цвета                           : BT.2020
Характеристики трансфера                 : PQ
Коэффициенты матрицы                     : BT.2020 non-constant
MasteringDisplay_ColorPrimaries          : Display P3
MasteringDisplay_Luminance               : min: 0.0050 cd/m2, max: 1000 cd/m2
Аудио #1
Идентификатор                            : 2
Формат                                   : AC-3
Формат/Информация                        : Audio Coding 3
Идентификатор кодека                     : A_AC3
Продолжительность                        : 2 ч. 1 м.
Вид битрейта                             : Постоянный
Битрейт                                  : 192 Кбит/сек
Каналы                                   : 2 канала
Расположение каналов                     : Front: L R
Частота                                  : 48,0 КГц
Частота кадров                           : 31,250 кадров/сек (1536 SPF)
Битовая глубина                          : 16 бит
Метод сжатия                             : С потерями
Размер потока                            : 167 Мбайт (1%)
Заголовок                                : MVO СВ Студия
Язык                                     : Russian
ServiceKind/String                       : Complete Main
Default                                  : Да
Forced                                   : Нет
Аудио #2
Идентификатор                            : 3
Формат                                   : E-AC-3
Формат/Информация                        : Enhanced Audio Coding 3
Профиль формата                          : E-AC-3+Atmos / E-AC-3
Идентификатор кодека                     : A_EAC3
Продолжительность                        : 2 ч. 1 м.
Вид битрейта                             : Постоянный
Битрейт                                  : 576 Кбит/сек
Каналы                                   : 15 objects / 6 каналов
Расположение каналов                     : 15 objects / Front: L C R, Side: L R, LFE
Частота                                  : 48,0 КГц
Частота кадров                           : 187,500 кадров/сек (256 SPF)
Метод сжатия                             : С потерями
Задержка видео                           : 83 мс.
Размер потока                            : 502 Мбайт (2%)
Язык                                     : English
ServiceKind/String                       : Complete Main
Default                                  : Нет
Forced                                   : Нет
Текст #1
Идентификатор                            : 4
Формат                                   : UTF-8
Идентификатор кодека                     : S_TEXT/UTF8
Идентификатор кодека/Информация          : UTF-8 Plain Text
Продолжительность                        : 1 ч. 56 м.
Битрейт                                  : 64 бит/сек
ElementCount                             : 1318
Размер потока                            : 55,4 Кбайт (0%)
Заголовок                                : full
Язык                                     : Russian
Default                                  : Да
Forced                                   : Нет
Текст #2
Идентификатор                            : 5
Формат                                   : UTF-8
Идентификатор кодека                     : S_TEXT/UTF8
Идентификатор кодека/Информация          : UTF-8 Plain Text
Продолжительность                        : 1 ч. 55 м.
Битрейт                                  : 40 бит/сек
ElementCount                             : 1347
Размер потока                            : 34,0 Кбайт (0%)
Заголовок                                : full
Язык                                     : English
Default                                  : Нет
Forced                                   : Нет
Текст #3
Идентификатор                            : 6
Формат                                   : UTF-8
Идентификатор кодека                     : S_TEXT/UTF8
Идентификатор кодека/Информация          : UTF-8 Plain Text
Продолжительность                        : 1 ч. 55 м.
Битрейт                                  : 45 бит/сек
ElementCount                             : 1588
Размер потока                            : 38,5 Кбайт (0%)
Заголовок                                : SDH
Язык                                     : English
Default                                  : Нет
Forced                                   : Нет
Меню
00:00:01.000                             : en:Chapter 01
00:03:29.000                             : en:Chapter 02
00:07:52.000                             : en:Chapter 03
00:10:08.000                             : en:Chapter 04
00:13:07.000                             : en:Chapter 05
00:15:07.000                             : en:Chapter 06
00:18:05.000                             : en:Chapter 07
00:22:59.000                             : en:Chapter 08
00:25:36.000                             : en:Chapter 09
00:31:41.000                             : en:Chapter 10
00:33:30.000                             : en:Chapter 11
00:36:33.000                             : en:Chapter 12
00:38:31.000                             : en:Chapter 13
00:42:06.000                             : en:Chapter 14
00:45:59.000                             : en:Chapter 15
00:48:32.000                             : en:Chapter 16
00:52:58.000                             : en:Chapter 17
00:55:15.000                             : en:Chapter 18
01:00:40.000                             : en:Chapter 19
01:02:57.000                             : en:Chapter 20
01:05:17.000                             : en:Chapter 21
01:10:51.000                             : en:Chapter 22
01:13:38.000                             : en:Chapter 23
01:16:36.000                             : en:Chapter 24
01:18:53.000                             : en:Chapter 25
01:22:49.000                             : en:Chapter 26
01:24:56.000                             : en:Chapter 27
01:28:26.000                             : en:Chapter 28
01:33:19.000                             : en:Chapter 29
01:36:09.000                             : en:Chapter 30
01:41:55.000                             : en:Chapter 31
01:45:24.000                             : en:Chapter 32
01:48:17.000                             : en:Chapter 33
01:51:44.000                             : en:Chapter 34
01:54:44.000                             : en:Chapter 35
01:56:52.000                             : en:Chapter 36

Скриншоты

[Цитировать]



Показать сообщения:    

Текущее время: 20-Окт 17:50

Часовой пояс: UTC + 6


Вы не можете начинать темы
Вы не можете отвечать на сообщения
Вы не можете редактировать свои сообщения
Вы не можете удалять свои сообщения
Вы не можете голосовать в опросах
Вы не можете прикреплять файлы к сообщениям
Вы не можете скачивать файлы

!ВНИМАНИЕ!
Сайт не предоставляет электронные версии произведений, а занимается лишь коллекционированием и каталогизацией ссылок, присылаемых и публикуемых на форуме нашими читателями. Если вы являетесь правообладателем какого-либо представленного материала и не желаете, чтобы ссылка на него находилась в нашем каталоге, свяжитесь с нами, и мы незамедлительно удалим ее. Файлы для обмена на трекере предоставлены пользователями сайта, и администрация не несет ответственности за их содержание. Просьба не заливать файлы, защищенные авторскими правами, а также файлы нелегального содержания!