***Уважаемые пользователи и гости !!! Сайт переехал на новый домен Torrents-club.net. Просьба изменить ваши закладки! ***
 
[ Сегодня идет свободное скачивание без начисления Download ]


Статистика раздачи
Скачал: [ 2 ]
 
   
 
 
 
 
--Алита: Боевой ангел / Alita: Battle Angel -- --Год выпуска: 2019
Выпущено: Канада, Аргентина, США, Twentieth Century Fox, Lightstorm Entertainment, Troublemaker Studios
Жанр: Фантастика, боевик, триллер, мелодрама, приключения
Продолжительность: 02:02:04---Озвучка #1: Дублированный - iTunes - Русский
Озвучка #2: Профессиональный многоголосый - CВ Студия - Русский
Озвучка #3: Профессиональный многоголосый - HDRezka Studio - Русский
Озвучка #4: Дублированный - Line - Украинский
Озвучка #5: Профессиональный многоголосый -Английский - Оригинал
Озвучка #6: Профессиональный многоголосый -Английский - Оригинал
Субтитры: Russian , English, English SDH
--Релиз Без Рекламы --MDB 7.5 --Режиссеры:
Роберт Родригес--В ролях: : Роза Салазар, Кристоф Вальц, Дженнифер Коннелли, Махершала Али, Эд Скрейн, Джеки Эрл Хейли, Кин Джонсон, Хорхе Лендеборг мл., Лана Кондор, Идара Виктор-- Действие фильма происходит через 300 лет после Великой войны в XXVI веке. Доктор Идо находит останки женщины-киборга. После починки киборг ничего не помнит, но обнаруживает, что в состоянии пользоваться боевыми приемами киборгов. Начинаются поиски утерянных воспоминаний.--Качество : BDRip 1080p
Формат: MKV
Видео кодек: H264
Видео: 10.0Mбит/сек,1920х808(2.40.1),в 23.976кадр/сек,AVC (High@L4.1)(CABAC/5 Ref Frames)--Аудио Кодек:AC3 - DTS-ES
Аудио #1:AC3 384 Kbps, 48.0 KHz, 6 ch-Дублированный - iTunes-Русский
Аудио #2:AC3 384 Kbps, 48.0 KHz, 6 ch- многоголосый закадровый CВ Студия -Русский
Аудио #3:AC3 384 Kbps, 48.0 KHz, 6 ch- многоголосый закадровый HDRezka Studio -Русский
Аудио #4:AC3 384 Kbps, 48.0 KHz, 6 ch-Дублированный - Lines-Украинский
Аудио #5: AC3, 640 Kbps, 48.0 KHz,6 ch - - English - Оригинал
Аудио #6: Original -DTS-ES @ 48.0 KHz, 7 ch - - English - Оригинал--

Доп. информация:

Звуковая дорожка сделана путем наложения чистого голоса озвучивателей на центральный канал оригинальной дорожки. Качество идентично звуковой дорожке.
--

MediaInfo сезона

Общее
Уникальный идентификатор : 296355443807294561915094525831048178873 (0xDEF3FB7AB43649AE241F1C1B3AC5ACB9)
Полное имя : C:\Users\Russian Patriot\Downloads\Боевой ангел - Alita Battle Angel\Alita_Battle_Angel_2019_Н264_DD5.1_N.B_BDRip_1080_3хRus_Ukr_Eng\Alita_Battle_Angel_2019_Н264_DD5.1_N.B_BDRip_1080_3хRus_Ukr_Eng.mkv
Формат : Matroska
Версия формата : Version 4
Размер файла : 11,7 Гбайт
Продолжительность : 2 ч. 2 м.
Общий поток : 13,7 Мбит/сек
Название фильма : Alita Battle Angel 2019 @ Nikolai.Baranov & PIRATIYA
Дата кодирования : UTC 2019-07-12 13:21:56
Программа кодирования : mkvmerge v35.0.0 ('All The Love In The World') 64-bit
Библиотека кодирования : libebml v1.3.9 + libmatroska v1.5.2
Видео
Идентификатор : 1
Формат : AVC
Формат/Информация : Advanced Video Codec
Профиль формата : High@L4.1
Настройки формата : CABAC / 5 Ref Frames
Параметр CABAC формата : Да
Параметр RefFrames формата : 5 кадров
Идентификатор кодека : V_MPEG4/ISO/AVC
Продолжительность : 2 ч. 1 м.
Битрейт : 10,0 Мбит/сек
Ширина : 1920 пикселей
Высота : 808 пикселей
Соотношение сторон : 2,40:1
Режим частоты кадров : Постоянный
Частота кадров : 23,976 (24000/1001) кадра/сек
Цветовое пространство : YUV
Субдискретизация насыщенности : 4:2:0
Битовая глубина : 8 бит
Тип развёртки : Прогрессивная
Бит/(Пиксели*Кадры) : 0.270
Размер потока : 8,55 Гбайт (73%)
Заголовок : Alita_Battle_Angel_2019_Н264_DD5.1_N.B_BDRip_1080_3хRus_Ukr_Eng
Библиотека кодирования : x264 core 157 r2970 5493be8
Настройки программы : cabac=1 / ref=5 / deblock=1:-3:-3 / analyse=0x3:0x113 / me=umh / subme=8 / psy=1 / psy_rd=1.00:0.00 / mixed_ref=1 / me_range=16 / chroma_me=1 / trellis=1 / 8x8dct=1 / cqm=0 / deadzone=21,11 / fast_pskip=1 / chroma_qp_offset=-2 / threads=25 / lookahead_threads=4 / sliced_threads=0 / nr=0 / decimate=1 / interlaced=0 / bluray_compat=0 / constrained_intra=0 / bframes=3 / b_pyramid=2 / b_adapt=1 / b_bias=0 / direct=3 / weightb=1 / open_gop=0 / weightp=2 / keyint=250 / keyint_min=23 / scenecut=40 / intra_refresh=0 / rc_lookahead=50 / rc=2pass / mbtree=1 / bitrate=10039 / ratetol=1.0 / qcomp=0.60 / qpmin=0 / qpmax=69 / qpstep=4 / cplxblur=20.0 / qblur=0.5 / ip_ratio=1.40 / aq=1:1.00
Язык : Russian
Default : Да
Forced : Нет
Аудио #1
Идентификатор : 6
Формат : AC-3
Формат/Информация : Audio Coding 3
Коммерческое название : Dolby Digital
Идентификатор кодека : A_AC3
Продолжительность : 2 ч. 1 м.
Вид битрейта : Постоянный
Битрейт : 384 Кбит/сек
Каналы : 6 каналов
ChannelLayout : L R C LFE Ls Rs
Частота : 48,0 КГц
Частота кадров : 31,250 кадров/сек (1536 SPF)
Битовая глубина : 16 бит
Метод сжатия : С потерями
Размер потока : 335 Мбайт (3%)
Заголовок : DUB iTunes@DD5.1 AC3, 384 Kbps, 48.0 KHz, 6 ch
Язык : Russian
ServiceKind/String : Complete Main
Default : Да
Forced : Нет
Аудио #2
Идентификатор : 7
Формат : AC-3
Формат/Информация : Audio Coding 3
Коммерческое название : Dolby Digital
Идентификатор кодека : A_AC3
Продолжительность : 2 ч. 1 м.
Вид битрейта : Постоянный
Битрейт : 384 Кбит/сек
Каналы : 6 каналов
ChannelLayout : L R C LFE Ls Rs
Частота : 48,0 КГц
Частота кадров : 31,250 кадров/сек (1536 SPF)
Битовая глубина : 16 бит
Метод сжатия : С потерями
Размер потока : 335 Мбайт (3%)
Заголовок : MVO HDRezka Studio @DD5.1 AC3, 384 Kbps, 48.0 KHz, 6 ch
Язык : Russian
ServiceKind/String : Complete Main
Default : Нет
Forced : Нет
Аудио #3
Идентификатор : 8
Формат : AC-3
Формат/Информация : Audio Coding 3
Коммерческое название : Dolby Digital
Идентификатор кодека : A_AC3
Продолжительность : 2 ч. 1 м.
Вид битрейта : Постоянный
Битрейт : 384 Кбит/сек
Каналы : 6 каналов
ChannelLayout : L R C LFE Ls Rs
Частота : 48,0 КГц
Частота кадров : 31,250 кадров/сек (1536 SPF)
Битовая глубина : 16 бит
Метод сжатия : С потерями
Размер потока : 335 Мбайт (3%)
Заголовок : MVO СВ Студия @DD5.1 AC3, 384 Kbps, 48.0 KHz, 6 ch
Язык : Russian
ServiceKind/String : Complete Main
Default : Нет
Forced : Нет
Аудио #4
Идентификатор : 9
Формат : AC-3
Формат/Информация : Audio Coding 3
Коммерческое название : Dolby Digital
Идентификатор кодека : A_AC3
Продолжительность : 2 ч. 2 м.
Вид битрейта : Постоянный
Битрейт : 384 Кбит/сек
Каналы : 6 каналов
ChannelLayout : L R C LFE Ls Rs
Частота : 48,0 КГц
Частота кадров : 31,250 кадров/сек (1536 SPF)
Битовая глубина : 16 бит
Метод сжатия : С потерями
Размер потока : 336 Мбайт (3%)
Заголовок : DUB Ukr-Line @DD5.1 AC3, 384 Kbps, 48.0 KHz, 6 ch
Язык : Ukrainian
ServiceKind/String : Complete Main
Default : Нет
Forced : Нет
Аудио #5
Идентификатор : 10
Формат : AC-3
Формат/Информация : Audio Coding 3
Коммерческое название : Dolby Digital
Идентификатор кодека : A_AC3
Продолжительность : 2 ч. 1 м.
Вид битрейта : Постоянный
Битрейт : 640 Кбит/сек
Каналы : 6 каналов
ChannelLayout : L R C LFE Ls Rs
Частота : 48,0 КГц
Частота кадров : 31,250 кадров/сек (1536 SPF)
Битовая глубина : 16 бит
Метод сжатия : С потерями
Размер потока : 558 Мбайт (5%)
Заголовок : Original@DD5.1 AC3 ,640 Kbps, 48.0 KHz, 6 ch
Язык : English
ServiceKind/String : Complete Main
Default : Нет
Forced : Нет
Аудио #6
Идентификатор : 11
Формат : DTS ES
Формат/Информация : Digital Theater Systems
Коммерческое название : DTS-ES Matrix
Идентификатор кодека : A_DTS
Продолжительность : 2 ч. 1 м.
Вид битрейта : Постоянный
Битрейт : 1509 Кбит/сек
Каналы : 6 каналов
Channel(s)_Original : 7 каналов
ChannelLayout : C L R Ls Rs Cb LFE
Частота : 48,0 КГц
Частота кадров : 93,750 кадра/сек (512 SPF)
Битовая глубина : 24 бит
Метод сжатия : С потерями
Размер потока : 1,29 Гбайт (11%)
Заголовок : Original -DTS-ES @ 48.0 KHz, 7 ch
Язык : English
Default : Нет
Forced : Нет
Текст #1
Идентификатор : 2
Формат : UTF-8
Идентификатор кодека : S_TEXT/UTF8
Идентификатор кодека/Информация : UTF-8 Plain Text
Продолжительность : 2 с. 544 мс.
Битрейт : 251 бит/сек
ElementCount : 1
Размер потока : 80,0 байт (0%)
Заголовок : Rus-Forced
Язык : Russian
Default : Да
Forced : Нет
Текст #2
Идентификатор : 3
Формат : UTF-8
Идентификатор кодека : S_TEXT/UTF8
Идентификатор кодека/Информация : UTF-8 Plain Text
Продолжительность : 1 ч. 56 м.
Битрейт : 64 бит/сек
ElementCount : 1318
Размер потока : 55,4 Кбайт (0%)
Заголовок : Rus
Язык : Russian
Default : Нет
Forced : Нет
Текст #3
Идентификатор : 4
Формат : UTF-8
Идентификатор кодека : S_TEXT/UTF8
Идентификатор кодека/Информация : UTF-8 Plain Text
Продолжительность : 1 ч. 56 м.
Битрейт : 46 бит/сек
ElementCount : 1590
Размер потока : 39,5 Кбайт (0%)
Заголовок : Original - SDH
Язык : English
Default : Нет
Forced : Нет
Текст #4
Идентификатор : 5
Формат : UTF-8
Идентификатор кодека : S_TEXT/UTF8
Идентификатор кодека/Информация : UTF-8 Plain Text
Продолжительность : 1 ч. 55 м.
Битрейт : 41 бит/сек
ElementCount : 1347
Размер потока : 34,9 Кбайт (0%)
Заголовок : Original
Язык : English
Default : Нет
Forced : Нет
Меню
00:00:00.000 : :绗?01 绔? / :Глава 01 / :Глава 01
00:03:28.625 : :绗?02 绔?
00:07:51.680 : :绗?03 绔?
00:10:07.982 : :绗?04 绔?
00:13:06.703 : :绗?05 绔?
00:15:06.739 : :绗?06 绔?
00:18:04.542 : :绗?07 绔?
00:22:58.711 : :绗?08 绔?
00:25:35.325 : :绗?09 绔?
00:31:40.899 : :绗?10 绔?
00:33:29.216 : :绗?11 绔?
00:36:32.816 : :绗?12 绔?
00:38:30.892 : :绗?13 绔?
00:42:05.481 : :绗?14 绔?
00:45:58.214 : :绗?15 绔?
00:48:31.450 : :绗?16 绔?
00:52:57.007 : :绗?17 绔?
00:55:14.353 : :绗?18 绔?
01:00:39.761 : :绗?19 绔?
01:02:56.564 : :绗?20 绔?
01:05:16.788 : :绗?21 绔?
01:10:50.496 : :绗?22 绔?
01:13:37.288 : :绗?23 绔?
01:16:35.216 : :绗?24 绔?
01:18:52.227 : :绗?25 绔?
01:22:48.297 : :绗?26 绔?
01:24:55.340 : :绗?27 绔?
01:28:25.217 : :绗?28 绔?
01:33:18.551 : :绗?29 绔?
01:36:08.763 : :绗?30 绔?
01:41:54.692 : :绗?31 绔?
01:45:23.442 : :绗?32 绔?
01:48:16.490 : :绗?33 绔?
01:51:43.655 : :绗?34 绔?
01:54:43.668 : :绗?35 绔?
01:56:51.504 : :绗?36 绔?
--

Скриншоты

-- --Релиз от: Nikolai.Baranov & PIRATIYA --Время раздачи : 24/7---


Последний раз редактировалось: Nikolai.Baranov (2019-07-12 22:32), всего редактировалось 1 раз

[Цитировать]

. Поблагодарить:
ЯД: 410017546713876

[Цитировать]



Показать сообщения:    

Текущее время: 21-Сен 23:19

Часовой пояс: UTC + 6


Вы не можете начинать темы
Вы не можете отвечать на сообщения
Вы не можете редактировать свои сообщения
Вы не можете удалять свои сообщения
Вы не можете голосовать в опросах
Вы не можете прикреплять файлы к сообщениям
Вы не можете скачивать файлы

!ВНИМАНИЕ!
Сайт не предоставляет электронные версии произведений, а занимается лишь коллекционированием и каталогизацией ссылок, присылаемых и публикуемых на форуме нашими читателями. Если вы являетесь правообладателем какого-либо представленного материала и не желаете, чтобы ссылка на него находилась в нашем каталоге, свяжитесь с нами, и мы незамедлительно удалим ее. Файлы для обмена на трекере предоставлены пользователями сайта, и администрация не несет ответственности за их содержание. Просьба не заливать файлы, защищенные авторскими правами, а также файлы нелегального содержания!