***Уважаемые пользователи и гости !!! Сайт переехал на новый домен Torrents-club.net. Просьба изменить ваши закладки! ***
 
[ Сегодня идет свободное скачивание без начисления Download ]


Статистика раздачи
Скачал: [ 1 ]
 
   
 
 
 
 
Хеллбой / Hellboy (2019) [4K, HEVC, SDR / BDRip (2160p)
Год выпуска
: 2019
Жанр: Фэнтези, боевик, приключения
Выпущено: США, Summit Entertainment, Millennium Films, Campbell Grobman Films
Режиссер: Нил Маршалл
Продолжительность: 02:01:02
Перевод: Дублированный, профессиональный многоголосый
Субтитры: Русские, английские
возраст 18+

В ролях
: Дэвид Харбор, Иэн МакШейн, Милла Йовович, Саша Лэйн, Дэниэл Дэ Ким, Алистэр Петри, Софи Оконедо, Томас Хейден Чёрч, Марк Стэнли, Брин Глисон, Надя Керанова, Мария Тепавичарова, Ана Тобакова, Пенелопа Митчелл, Терри Рендал, Стивен Грэм, Марио де ла Роса, Ванесса Эйчхольц

О фильме
: Хеллбой – дьявольское создание по определенным причинам, ставшее своеобразным супергероем, спасающим человечество от могущественных злодеев, которым не способны противостоять простые смертные. Недавно он спас красавицу Элис Монаган из заточения, когда ее захватили феи. После этого девушка стала обладать мистическими способностями, позволяющими видеть сказочных существ, которые недосягаемы для наблюдения окружающими. Красотка стала возлюбленной своего спасителя и больше нападкам не подвергалась со стороны своих обидчиков. Недавно начала проявлять активность древняя ведьма Нимуэ, огромными обладающая магическими силами. Она еще во времена жила правления легендарного короля Артура, действующего с поддержкой знаменитого Мерлина. Тогда именитая ведьма целенаправленно совершенствовала свое колдовское мастерство.
ХЕЛЛБОЙ Русский Трейлер #2 (4K ULTRA HD) НОВЫЙ 2019
Техданные
Качество: BDRip (2160p)
Видео: HEVC, 28.5 Mбит/с, 3840x1606, 23.976 кадр/с, 10 Бит
Аудио: Русский (AC3, 6 ch, 448 Кбит/с), (AC3, 2 ch, 192 Кбит/с), английский (AC3, 6 ch, 448 Кбит/с)
Релиз
Мастер 5
Источник: https://torrents-club.net/viewtopic.php?t=150899 _Converted из 10-битного HDR в 10 бит SDR
Профиль формата: Main 10@L5.1@High_10 ми-битный SDR
Аудио: Русский - 48 kHz, AC3, 5.1, 448 Kbps - Дублированный (Лицензия BD RUS)
Аудио: Русский - 48 kHz, AC3, 2.0, 192 Kbps - Профессиональный многоголосый (СВ Студия)
Аудио: Английский - 48 kHz, AC3, 5.1, 448 Kbps - Оригинал
Субтитры: Русские (полные [Enigma], полные [FOCS], форсированные, английские

MediaInfo:

Общее
Уникальный идентификатор                 : 214662130432554908657353856760330862614 (0xA17E6C2879A2B164B3EB78F1E6084016)
Полное имя                               : F:\Hellboy.2019.2160p.BDRip.x265.10bit.SDR.Master5.mkv
Формат                                   : Matroska
Версия формата                           : Version 4
Размер файла                             : 25,0 Гбайт
Продолжительность                        : 2 ч. 1 м.
Общий поток                              : 29,6 Мбит/сек
Название фильма                          : Hellboy.2019.2160p.BDRip.x265.10bit.SDR.Master5
Дата кодирования                         : UTC 2019-10-06 14:46:36
Программа кодирования                    : mkvmerge v7.9.0 ('Birds') 64bit
Библиотека кодирования                   : libebml v1.3.1 + libmatroska v1.4.2
Обложка                                  : Yes
Attachments                              : small_cover_land.jpg / cover.jpg / cover_land.jpg / small_cover.jpg / Hellboy.png
Видео
Идентификатор                            : 1
Формат                                   : HEVC
Формат/Информация                        : High Efficiency Video Coding
Профиль формата                          : Main 10@L5.1@High
Идентификатор кодека                     : V_MPEGH/ISO/HEVC
Продолжительность                        : 2 ч. 1 м.
Битрейт                                  : 28,5 Мбит/сек
Ширина                                   : 3840 пикселей
Высота                                   : 1606 пикселей
Соотношение сторон                       : 2,40:1
Режим частоты кадров                     : Постоянный
Частота кадров                           : 23,976 (24000/1001) кадра/сек
Цветовое пространство                    : YUV
Субдискретизация насыщенности            : 4:2:0
Битовая глубина                          : 10 бит
Бит/(Пиксели*Кадры)                      : 0.193
Размер потока                            : 24,1 Гбайт (96%)
Заголовок                                : Hellboy.2019.2160p.BDRip.x265.10bit.SDR.Master5
Библиотека кодирования                   : x265 3.0+1-ed72af837053:[Windows][GCC 8.2.0][64 bit] 10bit
Настройки программы                      : cpuid=1111039 / frame-threads=16 / numa-pools=44,44 / wpp / no-pmode / no-pme / no-psnr / no-ssim / log-level=2 / input-csp=1 / input-res=3840x1606 / interlace=0 / total-frames=174120 / level-idc=51 / high-tier=1 / uhd-bd=0 / ref=3 / no-allow-non-conformance / repeat-headers / annexb / aud / hrd / info / hash=0 / no-temporal-layers / no-open-gop / min-keyint=1 / keyint=24 / gop-lookahead=0 / bframes=4 / b-adapt=2 / b-pyramid / bframe-bias=0 / rc-lookahead=25 / lookahead-slices=4 / scenecut=40 / radl=0 / no-splice / no-intra-refresh / ctu=64 / min-cu-size=8 / no-rect / no-amp / max-tu-size=32 / tu-inter-depth=1 / tu-intra-depth=1 / limit-tu=0 / rdoq-level=0 / dynamic-rd=0.00 / no-ssim-rd / signhide / no-tskip / nr-intra=0 / nr-inter=0 / no-constrained-intra / strong-intra-smoothing / max-merge=2 / limit-refs=3 / no-limit-modes / me=1 / subme=2 / merange=57 / temporal-mvp / weightp / no-weightb / no-analyze-src-pics / deblock=0:0 / no-sao / no-sao-non-deblock / rd=3 / no-early-skip / rskip / no-fast-intra / no-tskip-fast / no-cu-lossless / no-b-intra / no-splitrd-skip / rdpenalty=0 / psy-rd=2.00 / psy-rdoq=0.00 / no-rd-refine / no-lossless / cbqpoffs=0 / crqpoffs=0 / rc=crf / crf=16.0 / qcomp=0.60 / qpstep=4 / stats-write=0 / stats-read=0 / vbv-maxrate=160000 / vbv-bufsize=160000 / vbv-init=0.9 / crf-max=0.0 / crf-min=0.0 / ipratio=1.40 / pbratio=1.30 / aq-mode=1 / aq-strength=1.00 / cutree / zone-count=0 / no-strict-cbr / qg-size=32 / no-rc-grain / qpmax=69 / qpmin=0 / no-const-vbv / sar=1 / overscan=0 / videoformat=5 / range=0 / colorprim=2 / transfer=2 / colormatrix=2 / chromaloc=0 / display-window=0 / max-cll=0,0 / min-luma=0 / max-luma=1023 / log2-max-poc-lsb=8 / vui-timing-info / vui-hrd-info / slices=1 / opt-qp-pps / opt-ref-list-length-pps / no-multi-pass-opt-rps / scenecut-bias=0.05 / no-opt-cu-delta-qp / no-aq-motion / no-hdr / no-hdr-opt / no-dhdr10-opt / no-idr-recovery-sei / analysis-reuse-level=5 / scale-factor=0 / refine-intra=0 / refine-inter=0 / refine-mv=0 / refine-ctu-distortion=0 / no-limit-sao / ctu-info=0 / no-lowpass-dct / refine-analysis-type=0 / copy-pic=1 / max-ausize-factor=1.0 / no-dynamic-refine / no-single-sei / no-hevc-aq / qp-adaptation-range=1.00
Default                                  : Да
Forced                                   : Нет
Аудио #1
Идентификатор                            : 2
Формат                                   : AC-3
Формат/Информация                        : Audio Coding 3
Коммерческое название                    : Dolby Digital
Идентификатор кодека                     : A_AC3
Продолжительность                        : 2 ч. 1 м.
Вид битрейта                             : Постоянный
Битрейт                                  : 448 Кбит/сек
Каналы                                   : 6 каналов
Channel layout                           : L R C LFE Ls Rs
Частота                                  : 48,0 КГц
Частота кадров                           : 31,250 кадров/сек (1536 SPF)
Битовая глубина                          : 16 бит
Метод сжатия                             : С потерями
Размер потока                            : 388 Мбайт (2%)
Заголовок                                : Dub (Blu-Ray)
Язык                                     : Russian
ServiceKind/String                       : Complete Main
Default                                  : Да
Forced                                   : Нет
Аудио #2
Идентификатор                            : 3
Формат                                   : AC-3
Формат/Информация                        : Audio Coding 3
Коммерческое название                    : Dolby Digital
Идентификатор кодека                     : A_AC3
Продолжительность                        : 2 ч. 0 м.
Вид битрейта                             : Постоянный
Битрейт                                  : 192 Кбит/сек
Каналы                                   : 2 канала
Channel layout                           : L R
Частота                                  : 48,0 КГц
Частота кадров                           : 31,250 кадров/сек (1536 SPF)
Битовая глубина                          : 16 бит
Метод сжатия                             : С потерями
Размер потока                            : 166 Мбайт (1%)
Заголовок                                : MVO (SV Studio)
Язык                                     : Russian
ServiceKind/String                       : Complete Main
Default                                  : Нет
Forced                                   : Нет
Аудио #3
Идентификатор                            : 4
Формат                                   : AC-3
Формат/Информация                        : Audio Coding 3
Коммерческое название                    : Dolby Digital
Идентификатор кодека                     : A_AC3
Продолжительность                        : 2 ч. 1 м.
Вид битрейта                             : Постоянный
Битрейт                                  : 448 Кбит/сек
Каналы                                   : 6 каналов
Channel layout                           : L R C LFE Ls Rs
Частота                                  : 48,0 КГц
Частота кадров                           : 31,250 кадров/сек (1536 SPF)
Битовая глубина                          : 16 бит
Метод сжатия                             : С потерями
Размер потока                            : 388 Мбайт (2%)
Язык                                     : English
ServiceKind/String                       : Complete Main
Default                                  : Нет
Forced                                   : Нет
Текст #1
Идентификатор                            : 5
Формат                                   : UTF-8
Идентификатор кодека                     : S_TEXT/UTF8
Идентификатор кодека/Информация          : UTF-8 Plain Text
Продолжительность                        : 1 ч. 48 м.
Битрейт                                  : 1 бит/сек
ElementCount                             : 21
Размер потока                            : 1,01 Кбайт (0%)
Заголовок                                : Forced
Язык                                     : Russian
Default                                  : Да
Forced                                   : Нет
Текст #2
Идентификатор                            : 6
Формат                                   : UTF-8
Идентификатор кодека                     : S_TEXT/UTF8
Идентификатор кодека/Информация          : UTF-8 Plain Text
Продолжительность                        : 2 ч. 0 м.
Битрейт                                  : 85 бит/сек
ElementCount                             : 1543
Размер потока                            : 75,7 Кбайт (0%)
Заголовок                                : Full (Enigma) cens
Язык                                     : Russian
Default                                  : Нет
Forced                                   : Нет
Текст #3
Идентификатор                            : 7
Формат                                   : UTF-8
Идентификатор кодека                     : S_TEXT/UTF8
Идентификатор кодека/Информация          : UTF-8 Plain Text
Продолжительность                        : 2 ч. 0 м.
Битрейт                                  : 84 бит/сек
ElementCount                             : 1547
Размер потока                            : 74,6 Кбайт (0%)
Заголовок                                : Full (FOCS) uncens
Язык                                     : Russian
Default                                  : Нет
Forced                                   : Нет
Текст #4
Идентификатор                            : 8
Формат                                   : UTF-8
Идентификатор кодека                     : S_TEXT/UTF8
Идентификатор кодека/Информация          : UTF-8 Plain Text
Продолжительность                        : 2 ч. 0 м.
Битрейт                                  : 53 бит/сек
ElementCount                             : 1528
Размер потока                            : 46,7 Кбайт (0%)
Заголовок                                : Full
Язык                                     : English
Default                                  : Нет
Forced                                   : Нет
Текст #5
Идентификатор                            : 9
Формат                                   : UTF-8
Идентификатор кодека                     : S_TEXT/UTF8
Идентификатор кодека/Информация          : UTF-8 Plain Text
Продолжительность                        : 2 ч. 0 м.
Битрейт                                  : 59 бит/сек
ElementCount                             : 1899
Размер потока                            : 52,9 Кбайт (0%)
Заголовок                                : SDH
Язык                                     : English
Default                                  : Нет
Forced                                   : Нет
Меню
00:00:00.000                             : en:Chapter 01
00:08:54.284                             : en:Chapter 02
00:14:41.714                             : en:Chapter 03
00:22:34.853                             : en:Chapter 04
00:30:12.602                             : en:Chapter 05
00:35:48.730                             : en:Chapter 06
00:43:50.461                             : en:Chapter 07
00:53:17.611                             : en:Chapter 08
01:01:09.791                             : en:Chapter 09
01:09:24.786                             : en:Chapter 10
01:17:32.606                             : en:Chapter 11
01:26:07.579                             : en:Chapter 12
01:28:37.896                             : en:Chapter 13
01:37:58.456                             : en:Chapter 14
01:45:49.969                             : en:Chapter 15
01:51:06.660                             : en:Chapter 16

Скриншоты

[Цитировать]

Релиз обновлён - Замена на лицензию.

[Цитировать]



Показать сообщения:    

Текущее время: 20-Окт 13:44

Часовой пояс: UTC + 6


Вы не можете начинать темы
Вы не можете отвечать на сообщения
Вы не можете редактировать свои сообщения
Вы не можете удалять свои сообщения
Вы не можете голосовать в опросах
Вы не можете прикреплять файлы к сообщениям
Вы не можете скачивать файлы

!ВНИМАНИЕ!
Сайт не предоставляет электронные версии произведений, а занимается лишь коллекционированием и каталогизацией ссылок, присылаемых и публикуемых на форуме нашими читателями. Если вы являетесь правообладателем какого-либо представленного материала и не желаете, чтобы ссылка на него находилась в нашем каталоге, свяжитесь с нами, и мы незамедлительно удалим ее. Файлы для обмена на трекере предоставлены пользователями сайта, и администрация не несет ответственности за их содержание. Просьба не заливать файлы, защищенные авторскими правами, а также файлы нелегального содержания!