***Уважаемые пользователи и гости !!! Сайт переехал на новый домен Torrents-club.net. Просьба изменить ваши закладки! ***
 
[ Сегодня идет свободное скачивание без начисления Download ]


Статистика раздачи
Качаю: [ 1 ]
Скачал: [ 25 ]
 
   
 
 
 
 
Люди в черном: Интернэшнл / Men in Black International (2019) WEBRip [H.264/1080p-LQ] - Производство: США, Amblin Entertainment, Columbia Pictures, MacDonald/Parkes Productions, Original Film, Sony Pictures Entertainment (SPE), Amblin Entertainment, Tencent Pictures, The Hideaway Entertainment
Жанр: Фантастика, боевик, комедия, приключения
Режиссер: Ф. Гэри Грей
Продюсер: Лори МакДональд, Уолтер Ф. Паркс, Давид Бобэр
Актеры: Крис Хемсворт, Тесса Томпсон, Кумэйл Нанджиани, Ребекка Фергюсон, Рейф Сполл, Эмма Томпсон, Лиам Нисон, Лоран Буржуа, Ларри Буржуа, Кайван Новак
Описание:
Люди в черном, тайная организация на страже покоя и безопасности Земли, уже не раз защищали нас от нападения отбросов Вселенной. На этот раз самая большая опасность для мирового сообщества, которой агентам предстоит противостоять — шпион в их рядах.

Возраст: 16+ (зрителям, достигшим 16 лет)
Рейтинг MPAA: PG-13 (детям до 13 лет просмотр нежелателен)
Дата мировой премьеры: 11 июня 2019
Дата премьеры в России: 12 июня 2019, «WDSSPR»
Продолжительность: 01:54:31
Качество видео: WEBRip
Перевод: Дублированный (Чистый звук)
Субтитры: Корейские (вшитые, неотключаемые)
Реклама: Присутствует
Видео: AVC/H.264, 1920x1080, 6100 kbps, 23.976 fps
Аудио: АС3, 2 ch, 48 kHz, 384 Kbps | Русский

MediaInfo:

Общее
Уникальный идентификатор : 174408086897664195546615312772845128380 (0x8335C694ED638CA6B13B0FDC8A59CABC)
Полное имя : D:\Люди.в.черном.Интернэшнл.2019.WEBRip.[1080p].NNMClub.mkv
Формат : Matroska
Версия формата : Version 4
Размер файла : 5,19 Гбайт
Продолжительность : 1 ч. 54 м.
Режим общего битрейта : Переменный
Общий поток : 6486 Кбит/сек
Дата кодирования : UTC 2019-07-20 20:35:40
Программа кодирования : mkvmerge v8.3.0 ('Over the Horizon') 64bit
Библиотека кодирования : libebml v1.3.1 + libmatroska v1.4.2
Видео
Идентификатор : 1
Формат : AVC
Формат/Информация : Advanced Video Codec
Профиль формата : High@L4.1
Настройки формата : CABAC / 4 Ref Frames
Параметр CABAC формата : Да
Параметр RefFrames формата : 4 кадра
Идентификатор кодека : V_MPEG4/ISO/AVC
Продолжительность : 1 ч. 54 м.
Вид битрейта : Переменный
Битрейт : 6100 Кбит/сек
Максимальный битрейт : 7000 Кбит/сек
Ширина : 1920 пикселей
Высота : 1080 пикселей
Соотношение сторон : 16:9
Режим частоты кадров : Постоянный
Частота кадров : 23,976 (24000/1001) кадра/сек
Стандарт вещания : Component
Цветовое пространство : YUV
Субдискретизация насыщенности : 4:2:0
Битовая глубина : 8 бит
Тип развёртки : Прогрессивная
Бит/(Пиксели*Кадры) : 0.123
Размер потока : 4,88 Гбайт (94%)
Язык : English
Default : Да
Forced : Нет
Цветовой диапазон : Limited
Основные цвета : BT.709
Характеристики трансфера : BT.709
Коэффициенты матрицы : BT.709
Аудио
Идентификатор : 2
Формат : AC-3
Формат/Информация : Audio Coding 3
Коммерческое название : Dolby Digital
Идентификатор кодека : A_AC3
Продолжительность : 1 ч. 54 м.
Вид битрейта : Постоянный
Битрейт : 384 Кбит/сек
Каналы : 2 канала
ChannelLayout : L R
Частота : 48,0 КГц
Частота кадров : 31,250 кадров/сек (1536 SPF)
Битовая глубина : 16 бит
Метод сжатия : С потерями
Размер потока : 315 Мбайт (6%)
Язык : Russian
ServiceKind/String : Complete Main
Default : Да
Forced : Нет
Скриншоты:

[Цитировать]



Показать сообщения:    

Текущее время: 21-Сен 23:16

Часовой пояс: UTC + 6


Вы не можете начинать темы
Вы не можете отвечать на сообщения
Вы не можете редактировать свои сообщения
Вы не можете удалять свои сообщения
Вы не можете голосовать в опросах
Вы не можете прикреплять файлы к сообщениям
Вы не можете скачивать файлы

!ВНИМАНИЕ!
Сайт не предоставляет электронные версии произведений, а занимается лишь коллекционированием и каталогизацией ссылок, присылаемых и публикуемых на форуме нашими читателями. Если вы являетесь правообладателем какого-либо представленного материала и не желаете, чтобы ссылка на него находилась в нашем каталоге, свяжитесь с нами, и мы незамедлительно удалим ее. Файлы для обмена на трекере предоставлены пользователями сайта, и администрация не несет ответственности за их содержание. Просьба не заливать файлы, защищенные авторскими правами, а также файлы нелегального содержания!