***Уважаемые пользователи и гости !!! Сайт переехал на новый домен Torrents-club.net. Просьба изменить ваши закладки! ***
 
[ Сегодня идет свободное скачивание без начисления Download ]


Статистика раздачи
Качаю: [ 1 ]
Скачал: [ 3 ]
 
   
 
 
 
 
Жена моего мужаИнформация о фильме
Год выпуска: 2018
Страна: Россия
Жанр: мелодрама
Перевод: Не требуется
Продолжительность: 01:29:19
Режиссер: Артем Каграманян
В ролях: Вера Смолина (Маргарита Полосова), Мария Горбань (Алена Боженова), Евгений Джураев (Максим Шахрин), Тимофей Каратаев (Алексей Полосов), Оксана Голубева (Наташа, лучшая подруга Маргариты), Грант Каграманян (Георгий, продюсер), Екатерина Шмакова (ассистентка Боженовой), Марина Богатова (Таня), Кирилл Щербина (звукорежиссер), Степан Середа (Свердлов), Кирилл Белобородов (Слезкин), Владимир Довжик (кладовщик)
Описание: В один ужасный день муж Риты уходит от нее к роскошной красотке-телеведущей Алене. Она так и не успевает сказать ему, что ждет ребенка. И после неудачных попыток его вернуть, решает прибегнуть к магии. Рита отправляется к колдуну и загадывает желание: «Хочу быть рядом с моим мужем Алексеем». Ее желание сбывается, однако совсем не так, как она рассчитывала. На следующее утро Рита действительно просыпается рядом с Алексеем, но... в теле Алены!

Качество: HDTV 1080p
Формат: MKV
Видео: AVC, 1920x1080 (16:9), 7050 kbps, 25 fps, 0,136 bpp
Аудио: AC3 / 2.0 / 48 kHz / 192 kbps /

ОтчетМедиаИнфо

General
Unique ID : 210885064663022117844317673858974250574 (0x9EA6FC701F637C7688E4C7D65966764E)
Complete name : E:Запись с твZhena moego muzha.2018.HDTV 1080p.by.White Smoke.R.G.Generalfilm.mkv
Format : Matroska
Format version : Version 4 / Version 2
File size : 4.51 GiB
Duration : 1 h 29 min
Overall bit rate mode : Constant
Overall bit rate : 7 224 kb/s
Movie name : Zhena moego muzha.2018.HDTV 1080p.by.White Smoke.R.G.Generalfilm.mkv
Encoded date : UTC 2019-07-21 20:00:36
Writing application : mkvmerge v6.8.0 ('Theme for Great Cities') 64bit built on Mar 2 2014 21:34:26
Writing library : libebml v1.3.0 + libmatroska v1.4.1
Video
ID : 1
Format : AVC
Format/Info : Advanced Video Codec
Format profile : High@L4.1
Format settings, CABAC : Yes
Format settings, ReFrames : 3 frames
Codec ID : V_MPEG4/ISO/AVC
Duration : 1 h 29 min
Bit rate mode : Constant
Bit rate : 7 051 kb/s
Width : 1 920 pixels
Height : 1 080 pixels
Display aspect ratio : 16:9
Frame rate mode : Constant
Frame rate : 25.000 FPS
Standard : PAL
Color space : YUV
Chroma subsampling : 4:2:0
Bit depth : 8 bits
Scan type : Progressive
Bits/(Pixel*Frame) : 0.136
Stream size : 4.30 GiB (95%)
Default : Yes
Forced : No
Color range : Limited
Color primaries : BT.709
Transfer characteristics : BT.709
Matrix coefficients : BT.709
Audio
ID : 2
Format : AC-3
Format/Info : Audio Coding 3
Mode extension : CM (complete main)
Format settings, Endianness : Big
Codec ID : A_AC3
Duration : 1 h 29 min
Bit rate mode : Constant
Bit rate : 192 kb/s
Channel(s) : 2 channels
Channel positions : Front: L R
Sampling rate : 48.0 kHz
Frame rate : 31.250 FPS (1536 spf)
Compression mode : Lossy
Stream size : 123 MiB (3%)
Default : Yes
Forced : No

Скриншоты

[Цитировать]



Показать сообщения:    

Текущее время: 09-Дек 16:13

Часовой пояс: UTC + 6


Вы не можете начинать темы
Вы не можете отвечать на сообщения
Вы не можете редактировать свои сообщения
Вы не можете удалять свои сообщения
Вы не можете голосовать в опросах
Вы не можете прикреплять файлы к сообщениям
Вы не можете скачивать файлы

!ВНИМАНИЕ!
Сайт не предоставляет электронные версии произведений, а занимается лишь коллекционированием и каталогизацией ссылок, присылаемых и публикуемых на форуме нашими читателями. Если вы являетесь правообладателем какого-либо представленного материала и не желаете, чтобы ссылка на него находилась в нашем каталоге, свяжитесь с нами, и мы незамедлительно удалим ее. Файлы для обмена на трекере предоставлены пользователями сайта, и администрация не несет ответственности за их содержание. Просьба не заливать файлы, защищенные авторскими правами, а также файлы нелегального содержания!