***Уважаемые пользователи и гости !!! Сайт переехал на новый домен Torrents-club.net. Просьба изменить ваши закладки! ***
 
[ Сегодня идет свободное скачивание без начисления Download ]


Статистика раздачи
Скачал: [ 3 ]
 
   
 
 
 
 
Морской бой / BattleshipИнформация о фильме
Название: Морской бой
Оригинальное название: Battleship
Год выхода: 2012
Жанр: фантастика, боевик, триллер, приключения
Режиссер: Питер Берг
В ролях: Тейлор Китч, Александр Скарсгард, Рианна, Бруклин Декер, Таданобу Асано, Лиам Нисон, Джон Туи, Грегори Д. Гэдсон, Джесси Племонс, Хамиш Линклэйтер
О фильме: Мы посылаем сигналы в космос и ждем ответа. Но уверены ли мы, что хотим его получить? Что если пришельцы потенциально опасны? В 2009 году на конференции в Вашингтоне астронавт Эдгар Митчелл, побывавший на Луне, сделал сенсационное заявление о существовании внеземной жизни. Теперь мы знаем, контакт не просто возможен, он неизбежен!

Страна: США
Продолжительность: 02:11:14
Перевод: Дубляж (Blu-ray CEE)
Файл
Кодек: HEVC 10bit
Качество: BDRip 1080p
Видео: 1920x800 at 23.976 fps, x265@Main 10@L4@Main, crf, ~5110 kbps avg
Звук:
Аудио#1: Russian: 48 kHz, DTS, 3/2 (L,C,R,l,r) + LFE ch, ~768.00 kbps avg
Аудио#2: English: 48 kHz, AC3, 3/2 (L,C,R,l,r) + LFE ch, ~640.00 kbps avg
Субтитры: Russian (Forced), Russian, English

Скриншоты

MediaInfo

General
Unique ID : 178143938552647975263103372200236332393 (0x8605464A053C464786AA678E6CD8B569)
Complete name : Морской бой.2012.HEVC.mkv
Format : Matroska
Format version : Version 4 / Version 2
File size : 5.98 GiB
Duration : 2h 11mn
Overall bit rate : 6 526 Kbps
Movie name : Battleship
Encoded date : UTC 2017-04-06 19:21:01
Writing application : mkvmerge v9.5.0 ('Quiet Fire') 64bit
Writing library : libebml v1.3.4 + libmatroska v1.4.5
Video
ID : 1
Format : HEVC
Format/Info : High Efficiency Video Coding
Format profile : Main 10@L4@Main
Codec ID : V_MPEGH/ISO/HEVC
Duration : 2h 11mn
Bit rate : 5 115 Kbps
Width : 1 920 pixels
Height : 800 pixels
Display aspect ratio : 2.40:1
Frame rate mode : Constant
Frame rate : 23.976 (24000/1001) fps
Color space : YUV
Chroma subsampling : 4:2:0
Bit depth : 10 bits
Bits/(Pixel*Frame) : 0.139
Stream size : 4.69 GiB (78%)
Title : HEVC
Writing library : x265 2.3+27-7e137e3ae083:[Windows][GCC 5.3.1][64 bit] 10bit
Encoding settings : cpuid=1173503 / frame-threads=2 / numa-pools=4 / wpp / no-pmode / no-pme / no-psnr / no-ssim / log-level=2 / input-csp=1 / input-res=1920x800 / interlace=0 / total-frames=0 / level-idc=0 / high-tier=1 / uhd-bd=0 / ref=5 / no-allow-non-conformance / no-repeat-headers / annexb / no-aud / no-hrd / info / hash=0 / no-temporal-layers / open-gop / min-keyint=23 / keyint=250 / bframes=4 / b-adapt=2 / b-pyramid / bframe-bias=0 / rc-lookahead=30 / lookahead-slices=5 / scenecut=40 / no-intra-refresh / ctu=64 / min-cu-size=8 / no-rect / no-amp / max-tu-size=32 / tu-inter-depth=1 / tu-intra-depth=1 / limit-tu=0 / rdoq-level=2 / dynamic-rd=0.00 / signhide / no-tskip / nr-intra=0 / nr-inter=0 / no-constrained-intra / strong-intra-smoothing / max-merge=2 / limit-refs=3 / no-limit-modes / me=3 / subme=7 / merange=57 / temporal-mvp / weightp / weightb / no-analyze-src-pics / deblock=-3:-3 / no-sao / no-sao-non-deblock / rd=4 / no-early-skip / rskip / no-fast-intra / no-tskip-fast / no-cu-lossless / no-b-intra / rdpenalty=0 / psy-rd=2.00 / psy-rdoq=1.00 / no-rd-refine / analysis-mode=0 / no-lossless / cbqpoffs=0 / crqpoffs=0 / rc=crf / crf=20.0 / qcomp=0.60 / qpstep=4 / stats-write=0 / stats-read=0 / ipratio=1.40 / pbratio=1.30 / aq-mode=1 / aq-strength=1.00 / cutree / zone-count=0 / no-strict-cbr / qg-size=32 / no-rc-grain / qpmax=69 / qpmin=0 / sar=0 / overscan=0 / videoformat=5 / range=0 / colorprim=2 / transfer=2 / colormatrix=2 / chromaloc=0 / display-window=0 / max-cll=0,0 / min-luma=0 / max-luma=1023 / log2-max-poc-lsb=8 / vui-timing-info / vui-hrd-info / slices=1 / opt-qp-pps / opt-ref-list-length-pps / no-multi-pass-opt-rps / scenecut-bias=0.05 / no-opt-cu-delta-qp / no-aq-motion / no-hdr / no-hdr-opt / refine-level=5
Language : English
Default : Yes
Forced : No
Audio #1
ID : 2
Format : DTS
Format/Info : Digital Theater Systems
Mode : 16
Format settings, Endianness : Big
Codec ID : A_DTS
Duration : 2h 11mn
Bit rate mode : Constant
Bit rate : 768 Kbps
Channel(s) : 6 channels
Channel positions : Front: L C R, Side: L R, LFE
Sampling rate : 48.0 KHz
Frame rate : 93.750 fps (512 spf)
Bit depth : 24 bits
Compression mode : Lossy
Stream size : 721 MiB (12%)
Title : Dub
Language : Russian
Default : Yes
Forced : No
Audio #2
ID : 6
Format : AC-3
Format/Info : Audio Coding 3
Mode extension : CM (complete main)
Format settings, Endianness : Big
Codec ID : A_AC3
Duration : 2h 11mn
Bit rate mode : Constant
Bit rate : 640 Kbps
Channel(s) : 6 channels
Channel positions : Front: L C R, Side: L R, LFE
Sampling rate : 48.0 KHz
Frame rate : 31.250 fps (1536 spf)
Compression mode : Lossy
Stream size : 601 MiB (10%)
Title : Original
Language : English
Default : No
Forced : No
Text #1
ID : 3
Format : UTF-8
Codec ID : S_TEXT/UTF8
Codec ID/Info : UTF-8 Plain Text
Duration : 2h 10mn
Bit rate : 1 bps
Count of elements : 33
Stream size : 1.65 KiB (0%)
Title : Forced
Language : Russian
Default : Yes
Forced : Yes
Text #2
ID : 4
Format : UTF-8
Codec ID : S_TEXT/UTF8
Codec ID/Info : UTF-8 Plain Text
Duration : 2h 9mn
Bit rate : 72 bps
Count of elements : 1367
Stream size : 69.1 KiB (0%)
Title : Full
Language : Russian
Default : No
Forced : No
Text #3
ID : 5
Format : UTF-8
Codec ID : S_TEXT/UTF8
Codec ID/Info : UTF-8 Plain Text
Duration : 2h 9mn
Bit rate : 47 bps
Count of elements : 1386
Stream size : 44.7 KiB (0%)
Title : Full
Language : English
Default : No
Forced : No
Menu
00:00:00.000 : en:Chapter 01
00:09:24.105 : en:Chapter 02
00:15:04.320 : en:Chapter 03
00:23:08.679 : en:Chapter 04
00:29:44.032 : en:Chapter 05
00:36:26.810 : en:Chapter 06
00:42:01.269 : en:Chapter 07
00:49:09.655 : en:Chapter 08
00:56:08.323 : en:Chapter 09
01:00:02.224 : en:Chapter 10
01:09:50.520 : en:Chapter 11
01:15:26.731 : en:Chapter 12
01:20:56.935 : en:Chapter 13
01:29:47.424 : en:Chapter 14
01:37:14.412 : en:Chapter 15
01:43:32.248 : en:Chapter 16
01:49:38.572 : en:Chapter 17
01:56:20.682 : en:Chapter 18
02:00:41.359 : en:Chapter 19
02:09:33.975 : en:Chapter 20

x265

x265 [info]: HEVC encoder version 2.3+27-7e137e3ae083
x265 [info]: build info [Windows][GCC 5.3.1][64 bit] 10bit
x265 [info]: using cpu capabilities: MMX2 SSE2Fast SSSE3 SSE4.2 AVX AVX2 FMA3 LZCNT BMI2
x265 [info]: Main 10 profile, Level-4 (Main tier)
x265 [info]: Thread pool created using 4 threads
x265 [info]: Slices : 1
x265 [info]: frame threads / pool features : 2 / wpp(13 rows)
x265 [info]: Coding QT: max CU size, min CU size : 64 / 8
x265 [info]: Residual QT: max TU size, max depth : 32 / 1 inter / 1 intra
x265 [info]: ME / range / subpel / merge : star / 57 / 7 / 2
x265 [info]: Keyframe min / max / scenecut / bias: 23 / 250 / 40 / 5.00
x265 [info]: Lookahead / bframes / badapt : 30 / 4 / 2
x265 [info]: b-pyramid / weightp / weightb : 1 / 1 / 1
x265 [info]: References / ref-limit cu / depth : 5 / on / on
x265 [info]: AQ: mode / str / qg-size / cu-tree : 1 / 1.0 / 32 / 1
x265 [info]: Rate Control / qCompress : CRF-20.0 / 0.60
x265 [info]: tools: rd=4 psy-rd=2.00 rdoq=2 psy-rdoq=1.00 rskip signhide tmvp
x265 [info]: tools: strong-intra-smoothing lslices=5 deblock(tC=-3:B=-3)
x265 [info]: frame I: 3084, Avg QP:19.81 kb/s: 17604.37
x265 [info]: frame P: 49125, Avg QP:20.87 kb/s: 9621.22
x265 [info]: frame B: 136600, Avg QP:24.67 kb/s: 3211.23
x265 [info]: Weighted P-Frames: Y:7.1% UV:6.1%
x265 [info]: Weighted B-Frames: Y:11.5% UV:9.4%
x265 [info]: consecutive B-frames: 14.2% 8.0% 12.7% 32.4% 32.7%
encoded 188809 frames in 307383.76s (0.61 fps), 5114.10 kb/s, Avg QP:23.60

[Цитировать]



Показать сообщения:    

Текущее время: 25-Авг 04:00

Часовой пояс: UTC + 6


Вы не можете начинать темы
Вы не можете отвечать на сообщения
Вы не можете редактировать свои сообщения
Вы не можете удалять свои сообщения
Вы не можете голосовать в опросах
Вы не можете прикреплять файлы к сообщениям
Вы не можете скачивать файлы

!ВНИМАНИЕ!
Сайт не предоставляет электронные версии произведений, а занимается лишь коллекционированием и каталогизацией ссылок, присылаемых и публикуемых на форуме нашими читателями. Если вы являетесь правообладателем какого-либо представленного материала и не желаете, чтобы ссылка на него находилась в нашем каталоге, свяжитесь с нами, и мы незамедлительно удалим ее. Файлы для обмена на трекере предоставлены пользователями сайта, и администрация не несет ответственности за их содержание. Просьба не заливать файлы, защищенные авторскими правами, а также файлы нелегального содержания!