***Уважаемые пользователи и гости !!! Сайт переехал на новый домен Torrents-club.net. Просьба изменить ваши закладки! ***
 
[ Сегодня идет свободное скачивание без начисления Download ]


Статистика раздачи
Нет
 
   
 
 
 
 
Годзилла 2: Король монстров / Godzilla: King of the Monsters (2019)[4K, HEVC, HDR, Dolby Vision / Blu-Ray Remux] (2160p)
Год выпуска
: 2019
Жанр: Фантастика, фэнтези, боевик, приключения
Выпущено: США, Япония, Warner Bros., Legendary Entertainment, Toho Company
Режиссер: Майкл Догерти
Продолжительность: 02:11:42
Перевод: Дублированный
Субтитры: Русские (форс.)

В ролях
: Кайл Чандлер, Вера Фармига, Милли Бобби Браун, Кэн Ватанабэ, Цзыи Чжан, Брэдли Уитфорд, Салли Хокинс, Чарльз Дэнс, Томас Миддлдитч, Аиша Хайндс, О`Ши Джексон мл., Дэвид Стрэтэйрн, Энтони Рамос, Элизабет Ладлоу, Джонатан Ховард, Си Си Эйч Паундер, Джо Мортон, Тайлер Крумли, Келли Гарнер

О фильме
: История рассказывает о героических усилиях криптозоологического агентства «Монарх» по сдерживанию гигантских монстров. В этот раз против могучего Годзиллы выступают Мотра, Родан и ультимативный кайдзю - трёхголовый монстр Кинг Гидора. Когда эти древние суперхищники, со временем превратившиеся в полузабытые мифы, восстают снова, чтобы сойтись в схватке, человечеству остаётся отойти в сторонку и постараться не погибнуть.
Годзилла 2: Король монстров — русский трейлер (2019)
Техданные
Качество: Blu-Ray Remux (2160p)
Видео: HEVC, 56.4 Мбит/с, 3840x2160
Аудио: Русский (AC3, 6 ch, 384 Кбит/с)

Релиз

Релиз: селезень
Озвучивание: Дублированное [iTunes]
Субтитры: Русские (форсированные)
*Dolby Vision (2 Layers). Подходит так же для просмотра, через внутренний плеер телевизора. На некоторых моделях телевизоров, 2016 года, может не воспроизвестись.

MediaInfo:

General
Complete name               : D:\Video111\Godzilla.King.of.the.Monsters.2019.DV.2L.BDREMUX.2160p.seleZen\Godzilla.King.of.the.Monsters.2019.DV.2L.BDREMUX.2160p.seleZen.mp4
Format                      : MPEG-4
Format profile              : Base Media / Version 2
Codec ID                    : mp42 (mp42/dby1/isom)
File size                   : 54.2 GiB
Duration                    : 2 h 11 min
Overall bit rate            : 58.9 Mb/s
Encoded date                : UTC 2019-08-19 20:33:26
Tagged date                 : UTC 2019-08-19 20:33:26
Video #1
ID                          : 1
Format                      : HEVC
Format/Info                 : High Efficiency Video Coding
Format profile              : Main 10@L5.1@High
HDR format                  : SMPTE ST 2094 App 4, Version 1, HDR10+ Profile B compatible
Codec ID                    : hev1
Codec ID/Info               : High Efficiency Video Coding
Duration                    : 2 h 11 min
Bit rate                    : 56.4 Mb/s
Width                       : 3 840 pixels
Height                      : 2 160 pixels
Display aspect ratio        : 16:9
Frame rate mode             : Constant
Frame rate                  : 23.976 (24000/1001) FPS
Color space                 : YUV
Chroma subsampling          : 4:2:0 (Type 2)
Bit depth                   : 10 bits
Bits/(Pixel*Frame)          : 0.284
Stream size                 : 51.9 GiB (96%)
Default                     : No
Encoded date                : UTC 2019-08-19 20:33:26
Tagged date                 : UTC 2019-08-19 20:33:26
Color range                 : Limited
Color primaries             : BT.2020
Transfer characteristics    : PQ
Matrix coefficients         : BT.2020 non-constant
Mastering display color pri : Display P3
Mastering display luminance : min: 0.0050 cd/m2, max: 4000 cd/m2
Maximum Content Light Level : 1998 cd/m2
Maximum Frame-Average Light : 414 cd/m2
Codec configuration box     : hvcC
Video #2
ID                          : 2
Format                      : HEVC
Format/Info                 : High Efficiency Video Coding
Format profile              : Main 10@L5.1@High
HDR format                  : Dolby Vision, Version 1.0, dvhe.07.06, EL+RPU / SMPTE ST 2086, HDR10 compatible
Codec ID                    : dvhe
Codec ID/Info               : High Efficiency Video Coding with Dolby Vision
Duration                    : 2 h 11 min
Bit rate                    : 2 094 kb/s
Width                       : 1 920 pixels
Height                      : 1 080 pixels
Display aspect ratio        : 16:9
Frame rate mode             : Constant
Frame rate                  : 23.976 (24000/1001) FPS
Color space                 : YUV
Chroma subsampling          : 4:2:0 (Type 2)
Bit depth                   : 10 bits
Bits/(Pixel*Frame)          : 0.042
Stream size                 : 1.93 GiB (4%)
Default                     : No
Encoded date                : UTC 2019-08-19 20:33:26
Tagged date                 : UTC 2019-08-19 20:33:26
Color range                 : Limited
Color primaries             : BT.2020
Transfer characteristics    : PQ
Matrix coefficients         : BT.2020 non-constant
Mastering display color pri : Display P3
Mastering display luminance : min: 0.0050 cd/m2, max: 4000 cd/m2
Codec configuration box     : hvcC+dvcC
Audio
ID                          : 3
Format                      : AC-3
Format/Info                 : Audio Coding 3
Commercial name             : Dolby Digital
Codec ID                    : ac-3
Duration                    : 2 h 11 min
Bit rate mode               : Constant
Bit rate                    : 384 kb/s
Channel(s)                  : 6 channels
Channel layout              : L R C LFE Ls Rs
Sampling rate               : 48.0 kHz
Frame rate                  : 31.250 FPS (1536 SPF)
Bit depth                   : 16 bits
Compression mode            : Lossy
Stream size                 : 362 MiB (1%)
Language                    : Russian
Service kind                : Complete Main
Default                     : No
Encoded date                : UTC 2019-08-19 20:33:26
Tagged date                 : UTC 2019-08-19 20:33:26

Скриншоты

[Цитировать]



Показать сообщения:    

Текущее время: 22-Сен 00:12

Часовой пояс: UTC + 6


Вы не можете начинать темы
Вы не можете отвечать на сообщения
Вы не можете редактировать свои сообщения
Вы не можете удалять свои сообщения
Вы не можете голосовать в опросах
Вы не можете прикреплять файлы к сообщениям
Вы не можете скачивать файлы

!ВНИМАНИЕ!
Сайт не предоставляет электронные версии произведений, а занимается лишь коллекционированием и каталогизацией ссылок, присылаемых и публикуемых на форуме нашими читателями. Если вы являетесь правообладателем какого-либо представленного материала и не желаете, чтобы ссылка на него находилась в нашем каталоге, свяжитесь с нами, и мы незамедлительно удалим ее. Файлы для обмена на трекере предоставлены пользователями сайта, и администрация не несет ответственности за их содержание. Просьба не заливать файлы, защищенные авторскими правами, а также файлы нелегального содержания!