***Уважаемые пользователи и гости !!! Сайт переехал на новый домен Torrents-club.net. Просьба изменить ваши закладки! ***
 
[ Сегодня идет свободное скачивание без начисления Download ]


Статистика раздачи
Нет
 
   
 
 
 
 
Тачки / Cars (2006) [4K, HEVC, HDR / BDRip] (2160p)
Год выпуска:
2006
Жанр: Мультфильм, комедия, семейный, спорт, полнометражный
Выпущено: США, Walt Disney Pictures, Pixar Animation Studios
Режиссер: Джон Лассетер, Джо Рэнфт
Продолжительность: 01:56:45
Перевод: Дублированный
Субтитры: Русские, английские, украинские
возраст 6+

В ролях:
Оуэн Уилсон, Пол Ньюман, Бонни Хант, Ларри Кейбл Гай, Чич Марин, Тони Шэлоуб, Гуидо Куарони, Дженифер Льюис, Пол Дули, Майкл Уоллис

О фильме
: Неукротимый в своем желании всегда и во всем побеждать гоночный автомобиль «Молния» Маккуин вдруг обнаруживает, что сбился с пути и застрял в маленьком захолустном городке Радиатор-Спрингс, что находится где-то на трассе 66 в Калифорнии. Участвуя в гонках на Кубок Поршня, где ему противостояли два очень опытных соперника, Маккуин совершенно не ожидал, что отныне ему придется общаться с персонажами совсем иного рода. Это, например, Салли — шикарный Порше 2002-го года выпуска, Док Хадсон — легковушка модели «Хадсон Хорнет», 1951-го года выпуска или Метр — ржавый грузовичок-эвакуатор. И все они помогают Маккуину понять, что в мире существуют некоторые более важные вещи, чем слава, призы и спонсоры…
Тачки / Cars - Дублированный Трейлер HD + Трейлер - Самолеты
Техданные
Качество: BDRip (2160p)
Видео: HEVC, 10.9 Мбит/с, 3840х1608, 23.976 кадр/с, 10 Бит
Аудио: Русский, украинский (AC3, 6 ch, 640 Кбит/с), английский (TrueHD, 6 ch, 7098 Кбит/с), (AC3, 6 ch, 640 Кбит/с)

Релиз

Мастер 5
Видеоряд от TERMiNAL
Формат: Main 10@L5.1@High_x265_HDR10
Цветовой праймериз: BT.2020
Характеристики передачи: PQ
Матричные коэффициенты: BT.2020
Освоение основных цветов дисплея: Дисплей P3
Освоение яркости дисплея: мин: 0.0000 cd/m2, max: 1000 cd/m2
Аудио:
#1 - Русский / AC3 / 48 KHz / 5.1 ch / 640 Kbps (Дубляж)
#2 - Украинский / AC3 / 48 KHz / 5.1 ch / 640 Kbps (Дубляж)
#3 - Английский / Dolby Atmo / 48 KHz / 7.1 ch / 7098 Kbps (Original)
#4 - Английский / AC3 / 48 KHz / 5.1 ch / 640 Kbps (Original)
Субтитры: Русские, Украинские, English

MediaInfo:

Общее
Уникальный идентификатор                 : 221579657902119090381262448857631141329 (0xA6B2B0982DFD3033917050745DE3ADD1)
Полное имя                               : D:\Передел\Cars.2006.BDRip.2160p.x265.10bit.HDR.Master5 .mkv
Формат                                   : Matroska
Версия формата                           : Version 4
Размер файла                             : 16,3 Гбайт
Продолжительность                        : 1 ч. 56 м.
Режим общего битрейта                    : Переменный
Общий поток                              : 20,0 Мбит/сек
Название фильма                          : Cars.2006.BDRip.2160p.x265.10bit.HDR.Master5
Дата кодирования                         : UTC 2019-09-10 11:11:26
Программа кодирования                    : mkvmerge v7.9.0 ('Birds') 64bit
Библиотека кодирования                   : libebml v1.3.1 + libmatroska v1.4.2
Видео
Идентификатор                            : 1
Формат                                   : HEVC
Формат/Информация                        : High Efficiency Video Coding
Коммерческое название                    : HDR10
Профиль формата                          : Main 10@L5.1@High
Идентификатор кодека                     : V_MPEGH/ISO/HEVC
Продолжительность                        : 1 ч. 56 м.
Битрейт                                  : 10,9 Мбит/сек
Ширина                                   : 3840 пикселей
Высота                                   : 1608 пикселей
Соотношение сторон                       : 2,40:1
Режим частоты кадров                     : Постоянный
Частота кадров                           : 23,976 (24000/1001) кадра/сек
Цветовое пространство                    : YUV
Субдискретизация насыщенности            : 4:2:0 (Type 2)
Битовая глубина                          : 10 бит
Бит/(Пиксели*Кадры)                      : 0.074
Размер потока                            : 8,88 Гбайт (54%)
Заголовок                                : Cars.2006.BDRip.2160p.x265.10bit.HDR.Master5
Библиотека кодирования                   : x265 3.1+11-de920e0a3183:[Windows][GCC 6.3.0][64 bit] 10bit
Настройки программы                      : cpuid=1176575 / frame-threads=5 / numa-pools=36 / wpp / no-pmode / no-pme / no-psnr / no-ssim / log-level=2 / input-csp=1 / input-res=3840x1608 / interlace=0 / total-frames=167975 / level-idc=51 / high-tier=1 / uhd-bd=0 / ref=4 / no-allow-non-conformance / repeat-headers / annexb / aud / hrd / info / hash=0 / no-temporal-layers / no-open-gop / min-keyint=1 / keyint=24 / gop-lookahead=0 / bframes=4 / b-adapt=2 / b-pyramid / bframe-bias=0 / rc-lookahead=25 / lookahead-slices=4 / scenecut=40 / radl=0 / no-splice / no-intra-refresh / ctu=64 / min-cu-size=8 / rect / no-amp / max-tu-size=32 / tu-inter-depth=1 / tu-intra-depth=1 / limit-tu=0 / rdoq-level=2 / dynamic-rd=0.00 / no-ssim-rd / signhide / no-tskip / nr-intra=0 / nr-inter=0 / no-constrained-intra / no-strong-intra-smoothing / max-merge=3 / limit-refs=3 / limit-modes / me=3 / subme=3 / merange=57 / temporal-mvp / no-hme / weightp / no-weightb / no-analyze-src-pics / deblock=-3:-3 / no-sao / no-sao-non-deblock / rd=4 / no-early-skip / rskip / no-fast-intra / no-tskip-fast / no-cu-lossless / no-b-intra / no-splitrd-skip / rdpenalty=0 / psy-rd=2.00 / psy-rdoq=1.00 / no-rd-refine / no-lossless / cbqpoffs=0 / crqpoffs=0 / rc=crf / crf=17.0 / qcomp=0.60 / qpstep=4 / stats-write=0 / stats-read=0 / vbv-maxrate=160000 / vbv-bufsize=160000 / vbv-init=0.9 / crf-max=0.0 / crf-min=0.0 / ipratio=1.40 / pbratio=1.30 / aq-mode=2 / aq-strength=1.00 / cutree / zone-count=0 / no-strict-cbr / qg-size=32 / no-rc-grain / qpmax=69 / qpmin=0 / no-const-vbv / sar=1 / overscan=0 / videoformat=5 / range=0 / colorprim=9 / transfer=16 / colormatrix=9 / chromaloc=1 / chromaloc-top=2 / chromaloc-bottom=2 / display-window=0 / master-display=G(13250,34500)B(7500,3000)R(34000,16000)WP(15635,16450)L(10000000,0)cll=0,0 / min-luma=0 / max-luma=1023 / log2-max-poc-lsb=8 / vui-timing-info / vui-hrd-info / slices=1 / no-opt-qp-pps / no-opt-ref-list-length-pps / no-multi-pass-opt-rps / scenecut-bias=0.05 / no-opt-cu-delta-qp / no-aq-motion / hdr / hdr-opt / no-dhdr10-opt / no-idr-recovery-sei / analysis-reuse-level=5 / scale-factor=0 / refine-intra=0 / refine-inter=0 / refine-mv=0 / refine-ctu-distortion=0 / no-limit-sao / ctu-info=0 / no-lowpass-dct / refine-analysis-type=0 / copy-pic=1 / max-ausize-factor=1.0 / no-dynamic-refine / no-single-sei / no-hevc-aq / no-svt / no-field / qp-adaptation-range=1.00
Default                                  : Да
Forced                                   : Нет
Цветовой диапазон                        : Limited
Основные цвета                           : BT.2020
Характеристики трансфера                 : PQ
Коэффициенты матрицы                     : BT.2020 non-constant
MasteringDisplay_ColorPrimaries          : Display P3
MasteringDisplay_Luminance               : min: 0.0000 cd/m2, max: 1000 cd/m2
Аудио #1
Идентификатор                            : 2
Формат                                   : AC-3
Формат/Информация                        : Audio Coding 3
Коммерческое название                    : Dolby Digital
Идентификатор кодека                     : A_AC3
Продолжительность                        : 1 ч. 56 м.
Вид битрейта                             : Постоянный
Битрейт                                  : 640 Кбит/сек
Каналы                                   : 6 каналов
Channel layout                           : L R C LFE Ls Rs
Частота                                  : 48,0 КГц
Частота кадров                           : 31,250 кадров/сек (1536 SPF)
Битовая глубина                          : 16 бит
Метод сжатия                             : С потерями
Размер потока                            : 534 Мбайт (3%)
Заголовок                                : Дубляж
Язык                                     : Russian
ServiceKind/String                       : Complete Main
Default                                  : Да
Forced                                   : Нет
Аудио #2
Идентификатор                            : 3
Формат                                   : AC-3
Формат/Информация                        : Audio Coding 3
Коммерческое название                    : Dolby Digital
Идентификатор кодека                     : A_AC3
Продолжительность                        : 1 ч. 56 м.
Вид битрейта                             : Постоянный
Битрейт                                  : 640 Кбит/сек
Каналы                                   : 6 каналов
Channel layout                           : L R C LFE Ls Rs
Частота                                  : 48,0 КГц
Частота кадров                           : 31,250 кадров/сек (1536 SPF)
Битовая глубина                          : 16 бит
Метод сжатия                             : С потерями
Размер потока                            : 534 Мбайт (3%)
Заголовок                                : Дубляж
Язык                                     : Ukrainian
ServiceKind/String                       : Complete Main
Default                                  : Нет
Forced                                   : Нет
Аудио #3
Идентификатор                            : 4
Формат                                   : MLP FBA 16-ch
Формат/Информация                        : Meridian Lossless Packing FBA with 16-channel presentation
Коммерческое название                    : Dolby TrueHD with Dolby Atmos
Идентификатор кодека                     : A_TRUEHD
Продолжительность                        : 1 ч. 56 м.
Вид битрейта                             : Переменный
Битрейт                                  : 7098 Кбит/сек
Максимальный битрейт                     : 9315 Кбит/сек
Каналы                                   : 8 каналов
Channel layout                           : L R C LFE Ls Rs Lb Rb
Частота                                  : 48,0 КГц
Частота кадров                           : 1200,000 кадров/сек (40 SPF)
Метод сжатия                             : Без потерь
Размер потока                            : 5,79 Гбайт (35%)
Язык                                     : English
Default                                  : Нет
Forced                                   : Нет
Number of dynamic objects                : 13
Bed channel count                        : 1 канал
Bed channel configuration                : LFE
Аудио #4
Идентификатор                            : 5
Формат                                   : AC-3
Формат/Информация                        : Audio Coding 3
Коммерческое название                    : Dolby Digital
Идентификатор кодека                     : A_AC3
Продолжительность                        : 1 ч. 56 м.
Вид битрейта                             : Постоянный
Битрейт                                  : 640 Кбит/сек
Каналы                                   : 6 каналов
Channel layout                           : L R C LFE Ls Rs
Частота                                  : 48,0 КГц
Частота кадров                           : 31,250 кадров/сек (1536 SPF)
Битовая глубина                          : 16 бит
Метод сжатия                             : С потерями
Размер потока                            : 534 Мбайт (3%)
Заголовок                                : Original
Язык                                     : English
ServiceKind/String                       : Complete Main
Default                                  : Нет
Forced                                   : Нет
Текст #1
Идентификатор                            : 6
Формат                                   : UTF-8
Идентификатор кодека                     : S_TEXT/UTF8
Идентификатор кодека/Информация          : UTF-8 Plain Text
Продолжительность                        : 1 ч. 55 м.
Битрейт                                  : 110 бит/сек
ElementCount                             : 1478
Размер потока                            : 93,4 Кбайт (0%)
Язык                                     : Russian
Default                                  : Нет
Forced                                   : Нет
Текст #2
Идентификатор                            : 7
Формат                                   : UTF-8
Идентификатор кодека                     : S_TEXT/UTF8
Идентификатор кодека/Информация          : UTF-8 Plain Text
Продолжительность                        : 1 ч. 55 м.
Битрейт                                  : 103 бит/сек
ElementCount                             : 1587
Размер потока                            : 87,1 Кбайт (0%)
Язык                                     : Ukrainian
Default                                  : Нет
Forced                                   : Нет
Текст #3
Идентификатор                            : 8
Формат                                   : UTF-8
Идентификатор кодека                     : S_TEXT/UTF8
Идентификатор кодека/Информация          : UTF-8 Plain Text
Продолжительность                        : 1 ч. 51 м.
Битрейт                                  : 5 бит/сек
ElementCount                             : 147
Размер потока                            : 4,59 Кбайт (0%)
Язык                                     : Ukrainian
Default                                  : Нет
Forced                                   : Нет
Текст #4
Идентификатор                            : 9
Формат                                   : PGS
Режим смешивания                         : zlib
Идентификатор кодека                     : S_HDMV/PGS
Идентификатор кодека/Информация          : Picture based subtitle format used on BDs/HD-DVDs
Продолжительность                        : 1 ч. 55 м.
Битрейт                                  : 15,1 Кбит/сек
ElementCount                             : 3574
Размер потока                            : 12,5 Мбайт (0%)
Заголовок                                : English SDH
Язык                                     : English
Default                                  : Нет
Forced                                   : Нет
Меню
00:00:00.000                             : en:(01)00:00:00:000
00:09:37.576                             : en:(02)00:09:37:576
00:13:47.993                             : en:(03)00:13:47:993
00:16:19.019                             : en:(04)00:16:19:019
00:19:52.649                             : en:(05)00:19:52:649
00:24:33.054                             : en:(06)00:24:33:054
00:27:26.728                             : en:(07)00:27:26:728
00:28:11.939                             : en:(08)00:28:11:939
00:29:41.320                             : en:(09)00:29:41:320
00:33:57.451                             : en:(10)00:33:57:451
00:35:53.442                             : en:(11)00:35:53:442
00:41:50.340                             : en:(12)00:41:50:340
00:45:55.752                             : en:(13)00:45:55:752
00:48:40.208                             : en:(14)00:48:40:208
00:50:38.660                             : en:(15)00:50:38:660
00:54:40.359                             : en:(16)00:54:40:359
00:57:47.380                             : en:(17)00:57:47:380
01:01:28.934                             : en:(18)01:01:28:934
01:02:58.273                             : en:(19)01:02:58:273
01:05:42.437                             : en:(20)01:05:42:437
01:07:42.766                             : en:(21)01:07:42:766
01:09:48.975                             : en:(22)01:09:48:975
01:11:26.907                             : en:(23)01:11:26:907
01:15:01.121                             : en:(24)01:15:01:121
01:15:57.468                             : en:(25)01:15:57:468
01:20:13.808                             : en:(26)01:20:13:808
01:22:21.352                             : en:(27)01:22:21:352
01:24:58.467                             : en:(28)01:24:58:467
01:27:31.412                             : en:(29)01:27:31:412
01:32:36.675                             : en:(30)01:32:36:675
01:46:17.286                             : en:(31)01:46:17:286
01:48:31.504                             : en:(32)01:48:31:504
01:56:44.871                             : en:(33)01:56:44:871

Скриншоты

[Цитировать]



Показать сообщения:    

Текущее время: 18-Сен 17:20

Часовой пояс: UTC + 6


Вы не можете начинать темы
Вы не можете отвечать на сообщения
Вы не можете редактировать свои сообщения
Вы не можете удалять свои сообщения
Вы не можете голосовать в опросах
Вы не можете прикреплять файлы к сообщениям
Вы не можете скачивать файлы

!ВНИМАНИЕ!
Сайт не предоставляет электронные версии произведений, а занимается лишь коллекционированием и каталогизацией ссылок, присылаемых и публикуемых на форуме нашими читателями. Если вы являетесь правообладателем какого-либо представленного материала и не желаете, чтобы ссылка на него находилась в нашем каталоге, свяжитесь с нами, и мы незамедлительно удалим ее. Файлы для обмена на трекере предоставлены пользователями сайта, и администрация не несет ответственности за их содержание. Просьба не заливать файлы, защищенные авторскими правами, а также файлы нелегального содержания!