***Уважаемые пользователи и гости !!! Сайт переехал на новый домен Torrents-club.net. Просьба изменить ваши закладки! ***
 
[ Сегодня идет свободное скачивание без начисления Download ]


Статистика раздачи
Скачал: [ 2 ]
 
   
 
 
 
 
Я заберу твоего мертвеца / I'll Take Your Dead Информация о фильме
Название: Я заберу твоего мертвеца
Оригинальное название: I'll Take Your Dead
Год выхода: 2018
Жанр: Криминал, ужасы
Режиссер: Чад Арчибальд
В ролях: Эйдан Дивайн, Ава Престон, Джесс Салгейру, Брэндон МакНайт, Эри Миллен, Майкл Ревентан, Раффаэль Бреретон, Адам Кристи, Тавари Дэниел-Симмс, Мо Жюди-Ламур
О фильме:
]Уильям – простой фермер и заботливый отец. Есть у него дочь Глория, с которой он вместе проживает на небольшой ферме, расположенной недалеко от города. Так сложились обстоятельства, что ферма, где они живут, стала последним пристанищем для трупов, которых туда привозят разные бандиты. Уильям должен сжигать тела и все возможные улики. Глория знает об отцовской деятельности и как-то уже привыкла к этому. В какой-то момент ей даже начало казаться, что их дом пропитан душами умерших людей. Но однажды всё круто меняется. Установленный порядок в доме разрушает новая «порция», привезённая на утилизацию. Среди них оказался живой человек....

Страна: Канада
Студия: Black Fawn Films, Breakthrough Entertainment
Продолжительность: 01:25:45
Перевод: Профессиональный (многоголосый, закадровый) | HDRezka Studio
Файл
Формат: MKV
Качество: WEB-DLRip-AVC
Видео: MPEG-4 AVC, 816x340, - 1138 Кбит/с
Аудио: AAC-HE, 2 ch, - 76 Кбит/с
Субтитры: Нет

MI

Общее
Уникальный идентификатор : 202084472922763182187086238484067529336 (0x98080DC3DAFAFBE4D8B80EC1B79C3278)
Полное имя : D:MOVIESIll.Take.Your.Dead.2018.WEB-DLRip-AVC.ExKinoRay.mkv
Формат : Matroska
Версия формата : Version 4 / Version 2
Размер файла : 744 Мбайт
Продолжительность : 1 ч. 25 м.
Общий поток : 1212 Кбит/сек
Дата кодирования : UTC 2019-09-11 04:14:57
Программа кодирования : mkvmerge v35.0.0 ('All The Love In The World') 64-bit
Библиотека кодирования : libebml v1.3.9 + libmatroska v1.5.2
Видео
Идентификатор : 1
Формат : AVC
Формат/Информация : Advanced Video Codec
Профиль формата : High@L4.1
Параметр CABAC формата : Да
Параметр RefFrames формата : 12 кадров
Идентификатор кодека : V_MPEG4/ISO/AVC
Продолжительность : 1 ч. 25 м.
Битрейт : 1138 Кбит/сек
Ширина : 816 пикселей
Высота : 340 пикселей
Соотношение сторон : 2,40:1
Режим частоты кадров : Постоянный
Частота кадров : 23,976 (24000/1001) кадра/сек
Цветовое пространство : YUV
Субдискретизация насыщенности : 4:2:0
Битовая глубина : 8 бит
Тип развёртки : Прогрессивная
Бит/(Пиксели*Кадры) : 0.171
Размер потока : 696 Мбайт (94%)
Библиотека кодирования : x264 core 152 r2851kMod ba24899
Настройки программы : cabac=1 / ref=12 / deblock=1:-3:-3 / analyse=0x3:0x133 / me=umh / subme=10 / psy=1 / fade_compensate=0.00 / psy_rd=1.00:0.12 / mixed_ref=1 / me_range=32 / chroma_me=1 / trellis=2 / 8x8dct=1 / cqm=0 / deadzone=21,11 / fast_pskip=0 / chroma_qp_offset=-3 / threads=6 / lookahead_threads=1 / sliced_threads=0 / nr=0 / decimate=0 / interlaced=0 / bluray_compat=0 / constrained_intra=0 / bframes=12 / b_pyramid=2 / b_adapt=2 / b_bias=0 / direct=3 / weightb=1 / open_gop=0 / weightp=2 / keyint=240 / keyint_min=23 / scenecut=40 / intra_refresh=0 / rc_lookahead=40 / rc=2pass / mbtree=1 / bitrate=1138 / ratetol=1.0 / qcomp=0.60 / qpmin=0 / qpmax=69 / qpstep=4 / cplxblur=20.0 / qblur=0.5 / ip_ratio=1.40 / aq=3:1.00
Default : Да
Forced : Нет
Аудио
Идентификатор : 2
Формат : AAC
Формат/Информация : Advanced Audio Codec
Профиль формата : HE-AAC / LC
Идентификатор кодека : A_AAC
Продолжительность : 1 ч. 25 м.
Битрейт : 76,0 Кбит/сек
Каналы : 2 канала
Расположение каналов : Front: L R
Частота : 48,0 КГц / 24,0 КГц
Частота кадров : 23,438 кадра/сек (1024 SPF)
Метод сжатия : С потерями
Задержка видео : 31 мс.
Размер потока : 46,6 Мбайт (6%)
Язык : Russian
Default : Да
Forced : Нет
Меню
00:00:00.000 : en:1
00:09:18.350 : en:2
00:19:47.729 : en:3
00:30:03.552 : en:4
00:39:37.416 : en:5
00:50:29.109 : en:6
00:58:41.810 : en:7
01:09:52.730 : en:8
01:19:40.441 : en:9
01:21:51.028 : en:10

Скриншоты

[Цитировать]



Показать сообщения:    

Текущее время: 18-Сен 17:49

Часовой пояс: UTC + 6


Вы не можете начинать темы
Вы не можете отвечать на сообщения
Вы не можете редактировать свои сообщения
Вы не можете удалять свои сообщения
Вы не можете голосовать в опросах
Вы не можете прикреплять файлы к сообщениям
Вы не можете скачивать файлы

!ВНИМАНИЕ!
Сайт не предоставляет электронные версии произведений, а занимается лишь коллекционированием и каталогизацией ссылок, присылаемых и публикуемых на форуме нашими читателями. Если вы являетесь правообладателем какого-либо представленного материала и не желаете, чтобы ссылка на него находилась в нашем каталоге, свяжитесь с нами, и мы незамедлительно удалим ее. Файлы для обмена на трекере предоставлены пользователями сайта, и администрация не несет ответственности за их содержание. Просьба не заливать файлы, защищенные авторскими правами, а также файлы нелегального содержания!