***Уважаемые пользователи и гости !!! Сайт переехал на новый домен Torrents-club.net. Просьба изменить ваши закладки! ***
 
[ Сегодня идет свободное скачивание без начисления Download ]


Статистика раздачи
Нет
 
   
 
 
 
 
КВН-2019. Летний кубок в Сочи [14.09] (2019)
Оригинальное название: КВН-2019. Летний Кубок
Год выпуска: 2019
Жанр: Юмор
Выпущено: Россия, АМИК, Первый канал
Ведущий: Александр Масляков
О фильме: Что такое КВН - знают, без сомнения, все. В КВН играют во всем мире, это прежде всего молодежная игра. Постоянные конкурсные задания - "Визитная карточка", "Разминка", "Конкурс капитанов", "Музыкальный конкурс", "Домашнее задание". Игру команд оценивает профессиональное жюри - люди, у которых с чувством юмора все в порядке, многие из них раньше сами играли в КВН. Среди членов жюри были Константин Эрнст, Леонид Парфенов, Юлий Гусман, Леонид Ярмольник, Валдис Пельш, Сергей Шолохов, Геннадий Хазанов и другие. Кроме самих игр проводятся ежегодные встречи: фестиваль команд КВН (с 1990 г., семь раз фестиваль проходил в г.Сочи), музыкальный фестиваль КВН, летний кубок КВН, международные товарищеские игры в КВН. Сборная КВН играет со сборными других стран. Уже состоялись игры между сборной КВН и сборными Америки, Австралии, Израиля... Игра в КВН для многих становится профессией, а многие благодаря игре связывают жизнь с искусством. Из КВН "вышли": Леонид Якубович, Михаил Марфин, Татьяна Лазарева, Олег Филимонов, Юлий Гусман и многие другие.
Качество: HDTV (1080i)
Видео: MPEG-TS AVC, 10.3 Мбит/с, 1920x1080, 25 кадр/с
Аудио: Русский (AC3, 2 ch, 384 Кбит/с), (MP2, 2 ch, 192 Кбит/с)
Продолжительность: 01:56:13
Перевод: Не требуется
Субтитры: нет

Скриншоты


MediaInfo

Общее
Идентификатор : 1 (0x1)
Полное имя : D:ЗаписьKVN-2019. Letnij Kubok.(14.09.2019).HDTV(1080i).GeneralFilm.ts
Формат : MPEG-TS
Размер файла : 9,28 Гбайт
Продолжительность : 1 ч. 56 м.
Режим общего битрейта : Переменный
Общий поток : 11,4 Мбит/сек
Видео
Идентификатор : 1904 (0x770)
Идентификатор меню : 80 (0x50)
Формат : AVC
Формат/Информация : Advanced Video Codec
Профиль формата : High@L4
Параметр CABAC формата : Да
Параметр ReFrames формата : 3 кадра
Идентификатор кодека : 27
Продолжительность : 1 ч. 56 м.
Битрейт : 10,3 Мбит/сек
Ширина : 1920 пикселей
Высота : 1080 пикселей
Соотношение сторон : 16:9
Частота кадров : 25,000 кадров/сек
Стандарт вещания : Component
Цветовое пространство : YUV
Субдискретизация насыщенности : 4:2:0
Битовая глубина : 8 бит
Тип развёртки : Чересстрочная
Метод сохранения типа развёртки : Раздельные поля
Порядок развёртки : Верхнее поле первое
Бит/(Пиксели*Кадры) : 0.198
Размер потока : 8,35 Гбайт (90%)
Цветовой диапазон : Limited
Основные цвета : BT.709
Характеристики трансфера : BT.709
Коэффициенты матрицы : BT.709
Аудио #1
Идентификатор : 2904 (0xB58)
Идентификатор меню : 80 (0x50)
Формат : AC-3
Формат/Информация : Audio Coding 3
Расширение режима : CM (complete main)
Параметр Endianness формата : Big
Идентификатор кодека : 6
Продолжительность : 1 ч. 56 м.
Вид битрейта : Постоянный
Битрейт : 384 Кбит/сек
Каналы : 6 каналов
Расположение каналов : Front: L C R, Side: L R, LFE
Частота : 48,0 КГц
Частота кадров : 31,250 кадров/сек (1536 spf)
Битовая глубина : 16 бит
Метод сжатия : С потерями
Задержка видео : -40 мс.
Размер потока : 319 Мбайт (3%)
Язык : Russian
Аудио #2
Идентификатор : 2905 (0xB59)
Идентификатор меню : 80 (0x50)
Формат : MPEG Audio
Версия формата : Version 1
Профиль формата : Layer 2
Идентификатор кодека : 3
Продолжительность : 1 ч. 56 м.
Вид битрейта : Постоянный
Битрейт : 192 Кбит/сек
Каналы : 2 канала
Частота : 48,0 КГц
Метод сжатия : С потерями
Задержка видео : -40 мс.
Размер потока : 160 Мбайт (2%)
Язык : Russian

Жюри

Юлий Гусман, Михаил Галустян, Алла Михеева, Эдгард Запашный и Вячеслав Муругов.

Команды

«Спарта» (Астана)
«Вятка» (Кировская область)
«Раисы» (Иркутск)

[Цитировать]



Показать сообщения:    

Текущее время: 20-Окт 11:46

Часовой пояс: UTC + 6


Вы не можете начинать темы
Вы не можете отвечать на сообщения
Вы не можете редактировать свои сообщения
Вы не можете удалять свои сообщения
Вы не можете голосовать в опросах
Вы не можете прикреплять файлы к сообщениям
Вы не можете скачивать файлы

!ВНИМАНИЕ!
Сайт не предоставляет электронные версии произведений, а занимается лишь коллекционированием и каталогизацией ссылок, присылаемых и публикуемых на форуме нашими читателями. Если вы являетесь правообладателем какого-либо представленного материала и не желаете, чтобы ссылка на него находилась в нашем каталоге, свяжитесь с нами, и мы незамедлительно удалим ее. Файлы для обмена на трекере предоставлены пользователями сайта, и администрация не несет ответственности за их содержание. Просьба не заливать файлы, защищенные авторскими правами, а также файлы нелегального содержания!