***Уважаемые пользователи и гости !!! Сайт переехал на новый домен Torrents-club.net. Просьба изменить ваши закладки! ***
 
[ Сегодня идет свободное скачивание без начисления Download ]


Статистика раздачи
Скачал: [ 2 ]
 
   
 
 
 
 
Тень за спиной [01-12 из 12] (2019)
Информация о фильме
Оригинальное название: Тень за спиной
Год выпуска: 2019
Жанр: Детектив, криминал
Выпущено: Россия, «ВайТ Медиа»
Режиссер: Марк Горобец
В ролях: Иван Оганесян, Александр Ляпин, Карина Андоленко, Михаил Тарабукин, Ксения Лаврова-Глинка, Денис Синявский, Дмитрий Поднозов, Дмитрий Паламарчук, Игорь Филиппов, Сергей Мардарь, Михаил Сидаш, Роман Синицын, Игорь Грабузов, Роман Притула, Виталий Салий, Олег Хамитов, Алёна Савастова, Артур Харитоненко, Станислав Демин, Маргарита Яковлева, Пётр Логачёв, Алексия Белавина, Тата Хачатрян
О фильме: В небольшом провинциальном городке происходит череда преступлений. Убийства совершаются по одному сценарию: женщины исчезают во время возвращения с вечеринок, находясь в состоянии алкогольного опьянения. Из этого появляется предположение, что в городе орудует маньяк. Чтобы разобраться в происходящем и найти серийного убийцу, в город приезжает следователь Генпрокуратуры Николай Горобец: он уже ловил маньяков, и кому, как не ему, заниматься этим делом. Однако местному прокурору Садовскому не до серийных убийств: в это время в городе идёт очередной передел собственности и власти, и ему хотелось бы избежать вмешательства Москвы. Но Садовский вынужден оказывать содействие в поисках убийцы, и, если до этого он торопил расследование, то сейчас быстрый успех столичного следователя не в его интересах; именно поэтому в команду Горобца определяют молодого следователя Светлану Мирошникову и ещё совсем «зелёного» оперативника Михаила Воробьёва.
Качество: WEBRip
Видео: XviD build 73, 720x304 (2.37:1), 25.000 fps, ~ 1400 Kbps (~ 0.250 bit/pixel)
Аудио: 48.0 kHz, AC3, 2/0 ch, 192 kbps
Продолжительность: 12 х ~ 00:45:00
Перевод: Не требуется [Русский]
Cубтитры: нет

Скриншоты

MediaInfo

General
Complete name : D:RazdachiTenj.Za.Spinoj.2019.WEBRip.GeneralFilmTenj.Za.Spinoj.e01.avi
Format : AVI
Format/Info : Audio Video Interleave
File size : 557 MiB
Duration : 47 min 49 s
Overall bit rate : 1 630 kb/s
Writing application : VirtualDubMod 1.5.10.3 | www.virtualdub-fr.org || (build 2550/release)
Writing library : VirtualDubMod build 2550/release
Video
ID : 0
Format : MPEG-4 Visual
Format profile : Advanced Simple@L5
Format settings : BVOP1 / Custom Matrix
Format settings, BVOP : 1
Format settings, QPel : No
Format settings, GMC : No warppoints
Format settings, Matrix : Custom
Codec ID : XVID
Codec ID/Hint : XviD
Duration : 47 min 49 s
Bit rate : 1 428 kb/s
Width : 720 pixels
Height : 304 pixels
Display aspect ratio : 2.35:1
Frame rate : 25.000 FPS
Color space : YUV
Chroma subsampling : 4:2:0
Bit depth : 8 bits
Scan type : Progressive
Compression mode : Lossy
Bits/(Pixel*Frame) : 0.261
Stream size : 488 MiB (88%)
Writing library : XviD 73
Audio
ID : 1
Format : AC-3
Format/Info : Audio Coding 3
Commercial name : Dolby Digital
Codec ID : 2000
Duration : 47 min 49 s
Bit rate mode : Constant
Bit rate : 192 kb/s
Channel(s) : 2 channels
Channel layout : L R
Sampling rate : 48.0 kHz
Frame rate : 31.250 FPS (1536 SPF)
Bit depth : 16 bits
Compression mode : Lossy
Stream size : 65.7 MiB (12%)
Alignment : Split accross interleaves
Interleave, duration : 40 ms (1.00 video frame)
Interleave, preload duratio : 500 ms
Service kind : Complete Main

[Цитировать]



Показать сообщения:    

Текущее время: 20-Окт 11:47

Часовой пояс: UTC + 6


Вы не можете начинать темы
Вы не можете отвечать на сообщения
Вы не можете редактировать свои сообщения
Вы не можете удалять свои сообщения
Вы не можете голосовать в опросах
Вы не можете прикреплять файлы к сообщениям
Вы не можете скачивать файлы

!ВНИМАНИЕ!
Сайт не предоставляет электронные версии произведений, а занимается лишь коллекционированием и каталогизацией ссылок, присылаемых и публикуемых на форуме нашими читателями. Если вы являетесь правообладателем какого-либо представленного материала и не желаете, чтобы ссылка на него находилась в нашем каталоге, свяжитесь с нами, и мы незамедлительно удалим ее. Файлы для обмена на трекере предоставлены пользователями сайта, и администрация не несет ответственности за их содержание. Просьба не заливать файлы, защищенные авторскими правами, а также файлы нелегального содержания!