***Уважаемые пользователи и гости !!! Сайт переехал на новый домен Torrents-club.net. Просьба изменить ваши закладки! ***
 
[ Сегодня идет свободное скачивание без начисления Download ]


Статистика раздачи
Качаю: [ 1 ]
Скачал: [ 7 ]
 
   
 
 
 
 
Человек-паук: Вдали от дома / Spider-Man: Far from Home (2019) BDRip - HEVC 1080p | 60 fps Год выпуска: 2019
Страна: США
Жанр: фантастика,
Продолжительность: 02:09:23
Перевод: Дублированный [iTunes]
Субтитры: русские (Full [iTunes]).
Режиссер: Джон Уоттс
В ролях:
Том Холланд (Peter Parker / Spider-Man), Сэмюэл Л. Джексон (Nick Fury), Джейк Джилленхол (Quentin Beck / Mysterio), Зендея (MJ), Коби Смолдерс (Maria Hill), Мариса Томей (May Parker), Джон Фавро (Happy Hogan), Джейкоб Баталон (Ned Leeds), Тони Револори (Flash Thompson), Энгаури Райс (Betty Brant), Реми Хай (Brad Davis), Мартин Старр (Mr. Harrington)
Описание:
Питер Паркер вместе с одноклассниками отправляется на летние каникулы в Европу. Однако отдохнуть приятелям вряд ли удастся - по прибытии в Венецию группа попадет в эпицентр сражения. Некое существо, состоящее из воды, появляется из ниоткуда и начинает крушить всё на своём пути, и теперь Питеру придётся спасать европейские архитектурные памятники вместе с загадочным супергероем Мистерио.
✦ Мировая премьера: 26 июня 2019

Качество: BDRip 1080p
Исходник: BDRemux 1080p
Формат: MKV
Видео: V_MPEGH/ISO/HEVC, 1920x804 (2.40:1), 4002 kbps, 59,940 fps, 0,043 bpp
Аудио: русский / AC3 / 5.1 / 48 kHz / 384 kbps / ||
Навигация по главам: есть

MediaInfo:

Общее
Уникальный идентификатор : 213678328450002306356594639614823745616 (0xA0C0F2F9B703F2C587C2ABC63741C850)
Полное имя : D:\Человек-паук Вдали от дома - Spider-Man Far from Home (2019) BDRip - HEVC 1080p 10 bit 60 FPS.mkv
Формат : Matroska
Версия формата : Version 4
Размер файла : 3,97 Гбайт
Продолжительность : 2 ч. 9 м.
Общий поток : 4391 Кбит/сек
Название фильма : Rip by DD2D3
Дата кодирования : UTC 2019-10-06 09:04:13
Программа кодирования : mkvmerge v10.0.0 ('To Drown In You') 32bit
Библиотека кодирования : libebml v1.3.4 + libmatroska v1.4.5
Attachments : poster
Видео
Идентификатор : 1
Формат : HEVC
Формат/Информация : High Efficiency Video Coding
Профиль формата : Main 10@L4.1@Main
Идентификатор кодека : V_MPEGH/ISO/HEVC
Продолжительность : 2 ч. 9 м.
Битрейт : 4003 Кбит/сек
Ширина : 1920 пикселей
Высота : 804 пикселя
Соотношение сторон : 2,40:1
Режим частоты кадров : Постоянный
Частота кадров : 59,940 (60000/1001) кадров/сек
Цветовое пространство : YUV
Субдискретизация насыщенности : 4:2:0
Битовая глубина : 10 бит
Бит/(Пиксели*Кадры) : 0.043
Размер потока : 3,62 Гбайт (91%)
Библиотека кодирования : x265 2.3+33-0b7d54dbb71a87a0:[Windows][MSVC 1800][64 bit] 10bit: KG7x [x265.ru]
Настройки программы : cpuid=1173503 / frame-threads=2 / numa-pools=4 / wpp / no-pmode / no-pme / no-psnr / no-ssim / log-level=2 / input-csp=1 / input-res=1920x804 / interlace=0 / total-frames=465356 / level-idc=41 / high-tier=1 / uhd-bd=0 / ref=3 / no-allow-non-conformance / no-repeat-headers / annexb / no-aud / no-hrd / info / hash=0 / no-temporal-layers / open-gop / min-keyint=25 / keyint=250 / bframes=4 / b-adapt=2 / b-pyramid / bframe-bias=0 / rc-lookahead=20 / lookahead-slices=5 / scenecut=40 / no-intra-refresh / ctu=64 / min-cu-size=8 / no-rect / no-amp / max-tu-size=32 / tu-inter-depth=1 / tu-intra-depth=1 / limit-tu=0 / rdoq-level=0 / dynamic-rd=0.00 / no-ssim-rd / signhide / no-tskip / nr-intra=0 / nr-inter=0 / no-constrained-intra / strong-intra-smoothing / max-merge=2 / limit-refs=3 / no-limit-modes / me=1 / subme=2 / merange=57 / temporal-mvp / weightp / no-weightb / no-analyze-src-pics / deblock=0:0 / no-sao / no-sao-non-deblock / rd=3 / no-early-skip / no-rskip / no-fast-intra / no-tskip-fast / no-cu-lossless / no-b-intra / rdpenalty=0 / psy-rd=4.00 / psy-rdoq=0.00 / no-rd-refine / analysis-mode=0 / no-lossless / cbqpoffs=0 / crqpoffs=0 / rc=abr / bitrate=4000 / qcomp=0.60 / qpstep=1 / stats-write=0 / stats-read=2 / cplxblur=20.0 / qblur=0.5 / ipratio=1.10 / pbratio=1.00 / aq-mode=0 / aq-strength=0.00 / no-cutree / zone-count=0 / no-strict-cbr / qg-size=64 / rc-grain / qpmax=69 / qpmin=0 / sar=1 / overscan=0 / videoformat=5 / range=0 / colorprim=2 / transfer=2 / colormatrix=2 / chromaloc=0 / display-window=0 / max-cll=0,0 / min-luma=0 / max-luma=1023 / log2-max-poc-lsb=8 / vui-timing-info / vui-hrd-info / slices=1 / opt-qp-pps / opt-ref-list-length-pps / no-multi-pass-opt-rps / scenecut-bias=0.05 / no-opt-cu-delta-qp / no-aq-motion / no-hdr / no-hdr-opt / refine-level=5 / no-limit-sao
Default : Да
Forced : Нет
Аудио
Идентификатор : 2
Формат : AC-3
Формат/Информация : Audio Coding 3
Коммерческое название : Dolby Digital
Идентификатор кодека : A_AC3
Продолжительность : 2 ч. 9 м.
Вид битрейта : Постоянный
Битрейт : 384 Кбит/сек
Каналы : 6 каналов
Channel layout : L R C LFE Ls Rs
Частота : 48,0 КГц
Частота кадров : 31,250 кадров/сек (1536 SPF)
Битовая глубина : 16 бит
Метод сжатия : С потерями
Размер потока : 355 Мбайт (9%)
Заголовок : iTunes
Язык : Russian
ServiceKind/String : Complete Main
Default : Да
Forced : Да
Текст
Идентификатор : 3
Формат : UTF-8
Идентификатор кодека : S_TEXT/UTF8
Идентификатор кодека/Информация : UTF-8 Plain Text
Продолжительность : 2 ч. 8 м.
Битрейт : 92 бит/сек
ElementCount : 1666
Размер потока : 86,8 Кбайт (0%)
Заголовок : Full [iTunes]
Язык : Russian
Default : Нет
Forced : Нет
Меню
00:00:00.000 : en:00:00:00.000
00:09:35.033 : en:00:09:35.033
00:16:06.716 : en:00:16:06.716
00:25:18.475 : en:00:25:18.475
00:35:26.499 : en:00:35:26.499
00:41:57.014 : en:00:41:57.014
00:49:50.029 : en:00:49:50.029
00:57:09.509 : en:00:57:09.509
01:04:50.637 : en:01:04:50.637
01:15:57.219 : en:01:15:57.219
01:22:49.089 : en:01:22:49.089
01:29:25.193 : en:01:29:25.193
01:36:43.256 : en:01:36:43.256
01:44:47.364 : en:01:44:47.364
01:52:17.397 : en:01:52:17.397
01:57:45.433 : en:01:57:45.433

[Цитировать]



Показать сообщения:    

Текущее время: 20-Окт 11:46

Часовой пояс: UTC + 6


Вы не можете начинать темы
Вы не можете отвечать на сообщения
Вы не можете редактировать свои сообщения
Вы не можете удалять свои сообщения
Вы не можете голосовать в опросах
Вы не можете прикреплять файлы к сообщениям
Вы не можете скачивать файлы

!ВНИМАНИЕ!
Сайт не предоставляет электронные версии произведений, а занимается лишь коллекционированием и каталогизацией ссылок, присылаемых и публикуемых на форуме нашими читателями. Если вы являетесь правообладателем какого-либо представленного материала и не желаете, чтобы ссылка на него находилась в нашем каталоге, свяжитесь с нами, и мы незамедлительно удалим ее. Файлы для обмена на трекере предоставлены пользователями сайта, и администрация не несет ответственности за их содержание. Просьба не заливать файлы, защищенные авторскими правами, а также файлы нелегального содержания!