***Уважаемые пользователи и гости !!! Сайт переехал на новый домен Torrents-club.net. Просьба изменить ваши закладки! ***
 
[ Сегодня идет свободное скачивание без начисления Download ]


Статистика раздачи
Нет
 
   
 
 
 
 
Хеллбой / Hellboy (2019) [4K, HEVC, HDR / Blu-Ray Remux] (2160p)
Год выпуска
: 2019
Жанр: Фэнтези, боевик, приключения
Выпущено: США, Summit Entertainment, Millennium Films, Campbell Grobman Films
Режиссер: Нил Маршалл
Продолжительность: 02:01:02
Перевод: Дублированный, профессиональный многоголосый, авторский
Субтитры: Русские, английские
возраст 18+

В ролях
: Дэвид Харбор, Иэн МакШейн, Милла Йовович, Саша Лэйн, Дэниэл Дэ Ким, Алистэр Петри, Софи Оконедо, Томас Хейден Чёрч, Марк Стэнли, Брин Глисон, Надя Керанова, Мария Тепавичарова, Ана Тобакова, Пенелопа Митчелл, Терри Рендал, Стивен Грэм, Марио де ла Роса, Ванесса Эйчхольц

О фильме
: Хеллбой – дьявольское создание по определенным причинам, ставшее своеобразным супергероем, спасающим человечество от могущественных злодеев, которым не способны противостоять простые смертные. Недавно он спас красавицу Элис Монаган из заточения, когда ее захватили феи. После этого девушка стала обладать мистическими способностями, позволяющими видеть сказочных существ, которые недосягаемы для наблюдения окружающими. Красотка стала возлюбленной своего спасителя и больше нападкам не подвергалась со стороны своих обидчиков. Недавно начала проявлять активность древняя ведьма Нимуэ, огромными обладающая магическими силами. Она еще во времена жила правления легендарного короля Артура, действующего с поддержкой знаменитого Мерлина. Тогда именитая ведьма целенаправленно совершенствовала свое колдовское мастерство.
ХЕЛЛБОЙ Русский Трейлер #2 (4K ULTRA HD) НОВЫЙ 2019
Техданные
Качество: Blu-Ray Remux (2160p)
Видео: HEVC, 66.1 Мбит/с, 3840x2160
Аудио: Русский (DTS-HD MA, 6 ch, 4622 Кбит/с),(DTS-HD MA, 6 ch, 4854 Кбит/с), (AC3, 2 ch, 192 Кбит/с), английский (TrueHD, 8 ch, 5703 Кбит/с), (AC3, 6 ch, 448 Кбит/с)

Релиз

Перевод 1: Профессиональный (дублированный) Blu-Ray
Перевод 2: Профессиональный (многоголосый закадровый) СВ Студия
Перевод 3: Одноголосый закадровый М. Яроцкий
Субтитры: русские (forced, Blu-Ray, FOCS, Наталья Раевская aka Enigma), английские (full, SDH)
Оригинальная аудиодорожка: английский
Перевод Михаила Яроцкого доступен благодаря: СэМ, работа со звуком - mihaildns.
В дорожках №2,3 и в субтитрах от FOCS присутствует ненормативная лексика.
Видео: MPEG-H HEVC Video / 66114 kbps / 3840x2160 / 23.976 fps / 16:9 / Main 10 @ Level 5.1 @ High / 4:2:0 / 10 bits / HDR10 / BT.2020 /
Аудио 1: Russian DTS-HD Master Audio / 5.1 / 48 kHz / 4622 kbps / 24-bit (DTS Core: 5.1 / 48 kHz / 1509 kbps / 24-bit) |Dub, Blu-Ray|
Аудио 2: Russian AC3 / 2.0 / 48 kHz / 192 kbps / 16 bits |MVO, СВ Студия|
Аудио 3: Russian DTS-HD Master Audio / 7.1 / 48 kHz / 4854 kbps / 24-bit (DTS Core: 5.1 / 48 kHz / 1509 kbps / 24-bit) |М. Яроцкий|
Аудио 4: English Dolby TrueHD/Atmos Audio / 7.1-Atmos / 48 kHz / 5703 kbps / 24-bit |original|
Аудио 5: English AC3 Core: 5.1-EX / 48 kHz / 448 kbps |original|
Формат субтитров: softsub [SRT]

MediaInfo:

Общее
Уникальный идентификатор                 : 132291146520153145847011997237465070046 (0x638659198BBA9D5BC577AED96AE039DE)
Полное имя                               : H:\UHD\Хеллбой.2019.UHD.Blu-Ray.Remux.2160p.mkv
Формат                                   : Matroska
Версия формата                           : Version 4
Размер файла                             : 69,0 Гбайт
Продолжительность                        : 2 ч. 1 м.
Режим общего битрейта                    : Переменный
Общий поток                              : 81,6 Мбит/сек
Дата кодирования                         : UTC 2019-10-05 13:12:05
Программа кодирования                    : mkvmerge v37.0.0 ('Leave It') 64-bit
Библиотека кодирования                   : libebml v1.3.9 + libmatroska v1.5.2
Attachments                              : poster.jpg
Видео
Идентификатор                            : 1
Формат                                   : HEVC
Формат/Информация                        : High Efficiency Video Coding
Профиль формата                          : Main 10@L5.1@High
HDR_Format/String                        : SMPTE ST 2086, HDR10 compatible
Идентификатор кодека                     : V_MPEGH/ISO/HEVC
Продолжительность                        : 2 ч. 1 м.
Битрейт                                  : 66,1 Мбит/сек
Ширина                                   : 3840 пикселей
Высота                                   : 2160 пикселей
Соотношение сторон                       : 16:9
Режим частоты кадров                     : Постоянный
Частота кадров                           : 23,976 (24000/1001) кадра/сек
Цветовое пространство                    : YUV
Субдискретизация насыщенности            : 4:2:0 (Type 2)
Битовая глубина                          : 10 бит
Бит/(Пиксели*Кадры)                      : 0.332
Размер потока                            : 55,9 Гбайт (81%)
Default                                  : Да
Forced                                   : Нет
Цветовой диапазон                        : Limited
Основные цвета                           : BT.2020
Характеристики трансфера                 : PQ
Коэффициенты матрицы                     : BT.2020 non-constant
MasteringDisplay_ColorPrimaries          : Display P3
MasteringDisplay_Luminance               : min: 0.0001 cd/m2, max: 4000 cd/m2
MaxCLL                                   : 3947 cd/m2
MaxFALL                                  : 542 cd/m2
Аудио #1
Идентификатор                            : 2
Формат                                   : DTS XLL
Формат/Информация                        : Digital Theater Systems
Коммерческое название                    : DTS-HD Master Audio
Идентификатор кодека                     : A_DTS
Продолжительность                        : 2 ч. 1 м.
Вид битрейта                             : Переменный
Битрейт                                  : 4622 Кбит/сек
Каналы                                   : 6 каналов
ChannelLayout                            : C L R Ls Rs LFE
Частота                                  : 48,0 КГц
Частота кадров                           : 93,750 кадра/сек (512 SPF)
Битовая глубина                          : 24 бит
Метод сжатия                             : Без потерь
Размер потока                            : 3,91 Гбайт (6%)
Заголовок                                : Dub, Blu-Ray
Язык                                     : Russian
Default                                  : Да
Forced                                   : Нет
Аудио #2
Идентификатор                            : 3
Формат                                   : AC-3
Формат/Информация                        : Audio Coding 3
Коммерческое название                    : Dolby Digital
Идентификатор кодека                     : A_AC3
Продолжительность                        : 2 ч. 0 м.
Вид битрейта                             : Постоянный
Битрейт                                  : 192 Кбит/сек
Каналы                                   : 2 канала
ChannelLayout                            : L R
Частота                                  : 48,0 КГц
Частота кадров                           : 31,250 кадров/сек (1536 SPF)
Метод сжатия                             : С потерями
Размер потока                            : 166 Мбайт (0%)
Заголовок                                : MVO, СВ Студия
Язык                                     : Russian
ServiceKind/String                       : Complete Main
Default                                  : Нет
Forced                                   : Нет
Аудио #3
Идентификатор                            : 4
Формат                                   : DTS XLL
Формат/Информация                        : Digital Theater Systems
Коммерческое название                    : DTS-HD Master Audio
Идентификатор кодека                     : A_DTS
Продолжительность                        : 2 ч. 1 м.
Вид битрейта                             : Переменный
Битрейт                                  : 4854 Кбит/сек
Каналы                                   : 8 каналов
ChannelLayout                            : C L R LFE Lb Rb Lss Rss
Частота                                  : 48,0 КГц
Частота кадров                           : 93,750 кадра/сек (512 SPF)
Битовая глубина                          : 24 бит
Метод сжатия                             : Без потерь
Размер потока                            : 4,10 Гбайт (6%)
Заголовок                                : М. Яроцкий
Язык                                     : Russian
Default                                  : Нет
Forced                                   : Нет
Аудио #4
Идентификатор                            : 5
Формат                                   : MLP FBA 16-ch
Формат/Информация                        : Meridian Lossless Packing FBA with 16-channel presentation
Коммерческое название                    : Dolby TrueHD with Dolby Atmos
Идентификатор кодека                     : A_TRUEHD
Продолжительность                        : 2 ч. 1 м.
Вид битрейта                             : Переменный
Битрейт                                  : 5255 Кбит/сек
Максимальный битрейт                     : 9408 Кбит/сек
Каналы                                   : 8 каналов
ChannelLayout                            : L R C LFE Ls Rs Lb Rb
Частота                                  : 48,0 КГц
Частота кадров                           : 1200,000 кадров/сек (40 SPF)
Метод сжатия                             : Без потерь
Размер потока                            : 4,44 Гбайт (6%)
Язык                                     : English
Default                                  : Нет
Forced                                   : Нет
NumberOfDynamicObjects                   : 15
BedChannelCount/String                   : 1 канал
BedChannelConfiguration                  : LFE
Аудио #5
Идентификатор                            : 6
Формат                                   : AC-3
Формат/Информация                        : Audio Coding 3
Коммерческое название                    : Dolby Digital
Идентификатор кодека                     : A_AC3
Продолжительность                        : 2 ч. 1 м.
Вид битрейта                             : Постоянный
Битрейт                                  : 448 Кбит/сек
Каналы                                   : 6 каналов
ChannelLayout                            : L R C LFE Ls Rs
Частота                                  : 48,0 КГц
Частота кадров                           : 31,250 кадров/сек (1536 SPF)
Метод сжатия                             : С потерями
Размер потока                            : 388 Мбайт (1%)
Язык                                     : English
ServiceKind/String                       : Complete Main
Default                                  : Нет
Forced                                   : Нет
Текст #1
Идентификатор                            : 7
Формат                                   : UTF-8
Идентификатор кодека                     : S_TEXT/UTF8
Идентификатор кодека/Информация          : UTF-8 Plain Text
Продолжительность                        : 1 ч. 50 м.
Битрейт                                  : 1 бит/сек
ElementCount                             : 21
Размер потока                            : 1,01 Кбайт (0%)
Заголовок                                : forced
Язык                                     : Russian
Default                                  : Да
Forced                                   : Нет
Текст #2
Идентификатор                            : 8
Формат                                   : UTF-8
Идентификатор кодека                     : S_TEXT/UTF8
Идентификатор кодека/Информация          : UTF-8 Plain Text
Продолжительность                        : 2 ч. 0 м.
Битрейт                                  : 83 бит/сек
ElementCount                             : 1437
Размер потока                            : 73,5 Кбайт (0%)
Заголовок                                : Blu-Ray
Язык                                     : Russian
Default                                  : Нет
Forced                                   : Нет
Текст #3
Идентификатор                            : 9
Формат                                   : UTF-8
Идентификатор кодека                     : S_TEXT/UTF8
Идентификатор кодека/Информация          : UTF-8 Plain Text
Продолжительность                        : 2 ч. 0 м.
Битрейт                                  : 84 бит/сек
ElementCount                             : 1547
Размер потока                            : 74,1 Кбайт (0%)
Заголовок                                : FOCS
Язык                                     : Russian
Default                                  : Нет
Forced                                   : Нет
Текст #4
Идентификатор                            : 10
Формат                                   : UTF-8
Идентификатор кодека                     : S_TEXT/UTF8
Идентификатор кодека/Информация          : UTF-8 Plain Text
Продолжительность                        : 2 ч. 0 м.
Битрейт                                  : 85 бит/сек
ElementCount                             : 1543
Размер потока                            : 75,7 Кбайт (0%)
Заголовок                                : Наталья / Раевская aka Enigma
Язык                                     : Russian
Default                                  : Нет
Forced                                   : Нет
Текст #5
Идентификатор                            : 11
Формат                                   : UTF-8
Идентификатор кодека                     : S_TEXT/UTF8
Идентификатор кодека/Информация          : UTF-8 Plain Text
Продолжительность                        : 2 ч. 0 м.
Битрейт                                  : 51 бит/сек
ElementCount                             : 1363
Размер потока                            : 45,8 Кбайт (0%)
Заголовок                                : full
Язык                                     : English
Default                                  : Нет
Forced                                   : Нет
Текст #6
Идентификатор                            : 12
Формат                                   : UTF-8
Идентификатор кодека                     : S_TEXT/UTF8
Идентификатор кодека/Информация          : UTF-8 Plain Text
Продолжительность                        : 2 ч. 0 м.
Битрейт                                  : 61 бит/сек
ElementCount                             : 1732
Размер потока                            : 53,9 Кбайт (0%)
Заголовок                                : SDH
Язык                                     : English
Default                                  : Нет
Forced                                   : Нет
Меню
00:00:00.000                             : :Chapter 01
00:08:54.283                             : :Chapter 02
00:14:41.714                             : :Chapter 03
00:22:34.853                             : :Chapter 04
00:30:12.602                             : :Chapter 05
00:35:48.729                             : :Chapter 06
00:43:50.461                             : :Chapter 07
00:53:17.611                             : :Chapter 08
01:01:09.791                             : :Chapter 09
01:09:24.785                             : :Chapter 10
01:17:32.606                             : :Chapter 11
01:26:07.579                             : :Chapter 12
01:28:37.895                             : :Chapter 13
01:37:58.455                             : :Chapter 14
01:45:49.968                             : :Chapter 15
01:51:06.660                             : :Chapter 16

Скриншоты

[Цитировать]



Показать сообщения:    

Текущее время: 20-Окт 12:05

Часовой пояс: UTC + 6


Вы не можете начинать темы
Вы не можете отвечать на сообщения
Вы не можете редактировать свои сообщения
Вы не можете удалять свои сообщения
Вы не можете голосовать в опросах
Вы не можете прикреплять файлы к сообщениям
Вы не можете скачивать файлы

!ВНИМАНИЕ!
Сайт не предоставляет электронные версии произведений, а занимается лишь коллекционированием и каталогизацией ссылок, присылаемых и публикуемых на форуме нашими читателями. Если вы являетесь правообладателем какого-либо представленного материала и не желаете, чтобы ссылка на него находилась в нашем каталоге, свяжитесь с нами, и мы незамедлительно удалим ее. Файлы для обмена на трекере предоставлены пользователями сайта, и администрация не несет ответственности за их содержание. Просьба не заливать файлы, защищенные авторскими правами, а также файлы нелегального содержания!