***Уважаемые пользователи и гости !!! Сайт переехал на новый домен Torrents-club.net. Просьба изменить ваши закладки! ***
 
[ Сегодня идет свободное скачивание без начисления Download ]


Статистика раздачи
Нет
 
   
 
 
 
 
Джон Уик 3 / John Wick: Chapter 3 - Parabellum (2019) [4K, HEVC, HDR, Dolby Vision TV / Blu-Ray Remux] (2160p) Год выпуска: 2019
Жанр: Боевик, триллер, криминал
Выпущено: США, Summit Entertainment, 87Eleven, Lionsgate
Режиссер: Чад Стахелски
Продолжительность: 02:10:46
Перевод: Дублированный
Субтитры: Русские, английские, украинские (форс.)
возраст 18+

В ролях
: Киану Ривз, Холли Берри, Иэн МакШейн, Лоуренс Фишборн, Марк Дакаскос, Азия Кейт Диллон, Лэнс Реддик, Тобиаш Сигал, Анжелика Хьюстон, Саид Тагмауи

О фильме
: В центре сюжета находится Джон Уик — опытный наемный киллер, который убил члена международной гильдии ассасинов, тем самым нарушив профессиональный кодекс, за что был приговорен к смерти. Несмотря на то, что Джона должны были казнить немедленно, ему удалось получить час отсрочки, перед тем, как наемник был признан отступником, отрезанным от гильдии и бывших коллег. И теперь за его голову назначено вознаграждение в 14 миллионов долларов, а десятки самых опасных убийц не остановятся ни перед чем, ведя кровавую охоту на легендарного киллера...
ДЖОН УИК 3 Русский Трейлер #2 (4K ULTRA HD) НОВЫЙ 2019 Киану Ривз, Холли Берри
Техданные
Качество: Blu-Ray Remux (2160p)
Видео: HEVC, 63154 Kбит/с, 3840x2160, 23.976 кадр/с
Аудио: Русский (AC3, 6 ch, 384 Кбит/с), украинский (AC3, 2 ch, 192 Кбит/с), английский (AC3, 6 ch, 640 Кбит/с)

Релиз

Dolby Vision для LG 2017+
DL - Dual Layer.
Имя файла: John.Wick.Chapter.3.Parabellum.2019.UHD.BDREMUX.2160p.DV.DL.IVA(RUS.UKR.ENG).ExKinoRay.mp4
Размер файла: 65.8 GB
Длительность: 02:10:46
Общий битрейт: 72.0 Mb/s
Видео: HEVC, 3840x2160 (16:9), 23.976 fps, 63.2 Mb/s (0.318 bit/pixel)
Аудио #1: AC-3, 48.0 kHz, 6 ch, 384 kb/s, CBR (Russian)
Аудио #2: AC-3, 48.0 kHz, 6 ch, 640 kb/s, CBR (English)
Аудио #3: AC-3, 48.0 kHz, 2 ch, 192 kb/s, CBR (Ukrainian)
Субтитры внешние (в отдельной папке) т.к. встроенный плеер видит только одни субтитры - "нужные" необходимо скопировать и положить рядом с видеофайлом (при необходимости переименовать (обозвать также как видеофайл))

MediaInfo:

General
Complete name                            : John.Wick.Chapter.3.Parabellum.2019.UHD.BDREMUX.2160p.DV.DL.IVA(RUS.UKR.ENG).ExKinoRay.mp4
Format                                   : MPEG-4
Format profile                           : Base Media / Version 2
Codec ID                                 : mp42 (mp42/isom/hev1/dby1)
File size                                : 65.8 GiB
Duration                                 : 2 h 10 min
Overall bit rate                         : 72.0 Mb/s
Movie name                               : John Wick 3: Parabellum UHD BDREMUX 2160p
Encoded date                             : UTC 2019-09-05 18:05:48
Tagged date                              : UTC 2019-09-05 18:26:52
Writing application                      : IVA.ExKinoRay
Cover                                    : Yes
Video #1
ID                                       : 1
Format                                   : HEVC
Format/Info                              : High Efficiency Video Coding
Format profile                           : Main 10@L5.1@High
HDR format                               : SMPTE ST 2086, HDR10 compatible
Codec ID                                 : hev1
Codec ID/Info                            : High Efficiency Video Coding
Duration                                 : 2 h 10 min
Bit rate                                 : 63.2 Mb/s
Width                                    : 3 840 pixels
Height                                   : 2 160 pixels
Display aspect ratio                     : 16:9
Frame rate mode                          : Constant
Frame rate                               : 23.976 (24000/1001) FPS
Color space                              : YUV
Chroma subsampling                       : 4:2:0 (Type 2)
Bit depth                                : 10 bits
Bits/(Pixel*Frame)                       : 0.318
Stream size                              : 57.7 GiB (88%)
Encoded date                             : UTC 2019-09-05 18:05:48
Tagged date                              : UTC 2019-09-05 18:26:45
Color range                              : Limited
Color primaries                          : BT.2020
Transfer characteristics                 : PQ
Matrix coefficients                      : BT.2020 non-constant
Mastering display color primaries        : Display P3
Mastering display luminance              : min: 0.0010 cd/m2, max: 1000 cd/m2
Maximum Content Light Level              : 1000 cd/m2
Maximum Frame-Average Light Level        : 358 cd/m2
Codec configuration box                  : hvcC
Video #2
ID                                       : 2
Format                                   : HEVC
Format/Info                              : High Efficiency Video Coding
Format profile                           : Main 10@L5.1@High
HDR format                               : Dolby Vision, Version 1.0, dvhe.07.06, EL+RPU / SMPTE ST 2086, HDR10 compatible
Codec ID                                 : dvhe
Codec ID/Info                            : High Efficiency Video Coding with Dolby Vision
Duration                                 : 2 h 10 min
Bit rate                                 : 7 627 kb/s
Width                                    : 1 920 pixels
Height                                   : 1 080 pixels
Display aspect ratio                     : 16:9
Frame rate mode                          : Constant
Frame rate                               : 23.976 (24000/1001) FPS
Color space                              : YUV
Chroma subsampling                       : 4:2:0 (Type 2)
Bit depth                                : 10 bits
Bits/(Pixel*Frame)                       : 0.153
Stream size                              : 6.97 GiB (11%)
Encoded date                             : UTC 2019-09-05 18:05:48
Tagged date                              : UTC 2019-09-05 18:26:45
Color range                              : Limited
Color primaries                          : BT.2020
Transfer characteristics                 : PQ
Matrix coefficients                      : BT.2020 non-constant
Mastering display color primaries        : Display P3
Mastering display luminance              : min: 0.0010 cd/m2, max: 1000 cd/m2
Codec configuration box                  : hvcC+dvcC
Audio #1
ID                                       : 3
Format                                   : AC-3
Format/Info                              : Audio Coding 3
Commercial name                          : Dolby Digital
Codec ID                                 : ac-3
Duration                                 : 2 h 10 min
Bit rate mode                            : Constant
Bit rate                                 : 384 kb/s
Channel(s)                               : 6 channels
Channel layout                           : L R C LFE Ls Rs
Sampling rate                            : 48.0 kHz
Frame rate                               : 31.250 FPS (1536 SPF)
Bit depth                                : 16 bits
Compression mode                         : Lossy
Stream size                              : 359 MiB (1%)
Title                                    : Russian (ac3 5.1)
Language                                 : Russian
Service kind                             : Complete Main
Default                                  : Yes
Alternate group                          : 1
Encoded date                             : UTC 2019-09-05 18:05:48
Tagged date                              : UTC 2019-09-05 18:26:45
Audio #2
ID                                       : 4
Format                                   : AC-3
Format/Info                              : Audio Coding 3
Commercial name                          : Dolby Digital
Codec ID                                 : ac-3
Duration                                 : 2 h 10 min
Bit rate mode                            : Constant
Bit rate                                 : 640 kb/s
Channel(s)                               : 6 channels
Channel layout                           : L R C LFE Ls Rs
Sampling rate                            : 48.0 kHz
Frame rate                               : 31.250 FPS (1536 SPF)
Bit depth                                : 16 bits
Compression mode                         : Lossy
Stream size                              : 599 MiB (1%)
Title                                    : English (ac3 5.1)
Language                                 : English
Service kind                             : Complete Main
Default                                  : No
Alternate group                          : 1
Encoded date                             : UTC 2019-09-05 18:05:48
Tagged date                              : UTC 2019-09-05 18:26:45
Audio #3
ID                                       : 5
Format                                   : AC-3
Format/Info                              : Audio Coding 3
Commercial name                          : Dolby Digital
Codec ID                                 : ac-3
Duration                                 : 2 h 10 min
Bit rate mode                            : Constant
Bit rate                                 : 192 kb/s
Channel(s)                               : 2 channels
Channel layout                           : L R
Sampling rate                            : 48.0 kHz
Frame rate                               : 31.250 FPS (1536 SPF)
Bit depth                                : 16 bits
Compression mode                         : Lossy
Stream size                              : 180 MiB (0%)
Title                                    : Ukrainian (ac3 2.0)
Language                                 : Ukrainian
Service kind                             : Complete Main
Default                                  : No
Alternate group                          : 1
Encoded date                             : UTC 2019-09-05 18:05:48
Tagged date                              : UTC 2019-09-05 18:26:45

Скриншоты

[Цитировать]



Показать сообщения:    

Текущее время: 20-Окт 13:18

Часовой пояс: UTC + 6


Вы не можете начинать темы
Вы не можете отвечать на сообщения
Вы не можете редактировать свои сообщения
Вы не можете удалять свои сообщения
Вы не можете голосовать в опросах
Вы не можете прикреплять файлы к сообщениям
Вы не можете скачивать файлы

!ВНИМАНИЕ!
Сайт не предоставляет электронные версии произведений, а занимается лишь коллекционированием и каталогизацией ссылок, присылаемых и публикуемых на форуме нашими читателями. Если вы являетесь правообладателем какого-либо представленного материала и не желаете, чтобы ссылка на него находилась в нашем каталоге, свяжитесь с нами, и мы незамедлительно удалим ее. Файлы для обмена на трекере предоставлены пользователями сайта, и администрация не несет ответственности за их содержание. Просьба не заливать файлы, защищенные авторскими правами, а также файлы нелегального содержания!