***Уважаемые пользователи и гости !!! Сайт переехал на новый домен Torrents-club.net. Просьба изменить ваши закладки! ***
 
[ Сегодня идет свободное скачивание без начисления Download ]


Статистика раздачи
Нет
 
   
 
 
 
 
Джон Уик 3 / John Wick: Chapter 3 - Parabellum (2019) [4K, HEVC, HDR / BDRip] (2160p) Год выпуска: 2019
Жанр: Боевик, триллер, криминал
Выпущено: США, Summit Entertainment, 87Eleven, Lionsgate
Режиссер: Чад Стахелски
Продолжительность: 02:10:46
Перевод: Дублированный, авторский, любительский многоголосый
Субтитры: Русские, английские, украинские
возраст 18+

В ролях
: Киану Ривз, Холли Берри, Иэн МакШейн, Лоуренс Фишборн, Марк Дакаскос, Азия Кейт Диллон, Лэнс Реддик, Тобиаш Сигал, Анжелика Хьюстон, Саид Тагмауи

О фильме
: В центре сюжета находится Джон Уик — опытный наемный киллер, который убил члена международной гильдии ассасинов, тем самым нарушив профессиональный кодекс, за что был приговорен к смерти. Несмотря на то, что Джона должны были казнить немедленно, ему удалось получить час отсрочки, перед тем, как наемник был признан отступником, отрезанным от гильдии и бывших коллег. И теперь за его голову назначено вознаграждение в 14 миллионов долларов, а десятки самых опасных убийц не остановятся ни перед чем, ведя кровавую охоту на легендарного киллера...
ДЖОН УИК 3 Русский Трейлер #2 (4K ULTRA HD) НОВЫЙ 2019 Киану Ривз, Холли Берри
Техданные
Качество: BDRip (2160p)
Видео: HEVC, 15600 Кбит/с, 3840x1600, 23.976 кадр/с, 10 бит
Аудио: Русский (AC3, 6 ch, 384 Кбит/с), (DTS, 6 ch, 1509 Кбит/с), украинский (AC3, 2 ch, 192 Кбит/с), английский (E-AC-3, 6 ch, 1536 Кбит/с)

Релиз

Видео: HEVC, 15600 Кбит/с, 3840x1600, 23.976 кадр/с, 10 бит
Аудио #1: Russian: 48 kHz/16-bit, AC3 5.1, ~384 kbps avg |Дубляж, iTunes|
Аудио #2: Russian: 48 kHz/24-bit, DTS 5.1, ~1509 kbps avg |Многоголосый закадровый, HDrezka|
Аудио #3: Russian: 48 kHz/24-bit, DTS 5.1, ~1509 kbps avg |Одноголосый закадровый, Д. Есарев|
Аудио #4: Ukrainian: 48 kHz/16-bit, AC3 2.0, ~192kbps avg |Дубляж, студія Pie Post Production|
Аудио #5: English: 48 kHz/24-bit, E-AC-3, 7.1 ch, ~1536 kbps avg
Субтитры: Русские (Forced, Full), Украинские (Forced), Английские (Full, SDH)
- Видеоряд от TERMiNAL
- За работу над озвучкой HDrezka большое спасибо Zgurvas.
- Озвучка Есарева доступна благодаря переулку переводмана, а именно: igrok2012, Shrooms, napaHouk, kokaino1987, Литти, kidman644, kostasmen, Battemen, Ananerbe, ALCASTER, van156, podorov92, Avatar-Lion, nikolas, skylink912, zhora687, stimco, other_code, Loki1982, mark. Работа со звуком - Переводман.

MediaInfo:

General
Unique ID                   : 180791517954856025333708560653889411570 (0x88032E082991821A9B10AAF0BF9999F2)
Complete name               : John Wick - Chapter 3 - Parabellum (2019) [4K HDR UHD-BDRip 2160p].mkv
Format                      : Matroska
Format version              : Version 4
File size                   : 19.0 GiB
Duration                    : 2 h 10 min
Overall bit rate            : 20.8 Mb/s
Movie name                  : John Wick: Chapter 3 - Parabellum (2019) [4K HDR UHD-BDRip 2160p]
Encoded date                : UTC 2019-10-04 02:59:09
Writing application         : mkvmerge v8.3.0 ('Over the Horizon') 32bit
Writing library             : libebml v1.3.1 + libmatroska v1.4.2
Cover                       : Yes
Attachments                 : Cover.jpg
Video
ID                          : 1
Format                      : HEVC
Format/Info                 : High Efficiency Video Coding
Commercial name             : HDR10
Format profile              : Main 10@L5.1@High
Codec ID                    : V_MPEGH/ISO/HEVC
Duration                    : 2 h 10 min
Bit rate                    : 15.6 Mb/s
Width                       : 3 840 pixels
Height                      : 1 600 pixels
Display aspect ratio        : 2.40:1
Frame rate mode             : Constant
Frame rate                  : 23.976 (24000/1001) FPS
Color space                 : YUV
Chroma subsampling          : 4:2:0 (Type 2)
Bit depth                   : 10 bits
Bits/(Pixel*Frame)          : 0.106
Stream size                 : 14.3 GiB (75%)
Title                       : Encode by TERMiNAL
Writing library             : x265 3.1+11-de920e0a3183:[Windows][GCC 6.3.0][64 bit] 10bit
Encoding settings           : cpuid=1111039 / frame-threads=4 / numa-pools=20 / wpp / no-pmode / no-pme / no-psnr / no-ssim / log-level=2 / input-csp=1 / input-res=3840x1600 / interlace=0 / total-frames=188123 / level-idc=51 / high-tier=1 / uhd-bd=0 / ref=4 / no-allow-non-conformance / repeat-headers / annexb / aud / hrd / info / hash=0 / no-temporal-layers / no-open-gop / min-keyint=1 / keyint=24 / gop-lookahead=0 / bframes=4 / b-adapt=2 / b-pyramid / bframe-bias=0 / rc-lookahead=25 / lookahead-slices=4 / scenecut=40 / radl=0 / no-splice / no-intra-refresh / ctu=64 / min-cu-size=8 / rect / no-amp / max-tu-size=32 / tu-inter-depth=1 / tu-intra-depth=1 / limit-tu=0 / rdoq-level=2 / dynamic-rd=0.00 / no-ssim-rd / signhide / no-tskip / nr-intra=0 / nr-inter=0 / no-constrained-intra / no-strong-intra-smoothing / max-merge=3 / limit-refs=3 / limit-modes / me=3 / subme=3 / merange=57 / temporal-mvp / no-hme / weightp / no-weightb / no-analyze-src-pics / deblock=-3:-3 / no-sao / no-sao-non-deblock / rd=4 / no-early-skip / rskip / no-fast-intra / no-tskip-fast / no-cu-lossless / no-b-intra / no-splitrd-skip / rdpenalty=0 / psy-rd=2.00 / psy-rdoq=1.00 / no-rd-refine / no-lossless / cbqpoffs=0 / crqpoffs=0 / rc=crf / crf=17.0 / qcomp=0.60 / qpstep=4 / stats-write=0 / stats-read=0 / vbv-maxrate=160000 / vbv-bufsize=160000 / vbv-init=0.9 / crf-max=0.0 / crf-min=0.0 / ipratio=1.40 / pbratio=1.30 / aq-mode=2 / aq-strength=1.00 / cutree / zone-count=0 / no-strict-cbr / qg-size=32 / no-rc-grain / qpmax=69 / qpmin=0 / no-const-vbv / sar=1 / overscan=0 / videoformat=5 / range=0 / colorprim=9 / transfer=16 / colormatrix=9 / chromaloc=1 / chromaloc-top=2 / chromaloc-bottom=2 / display-window=0 / master-display=G(13250,34500)B(7500,3000)R(34000,16000)WP(15635,16450)L(10000000,10)cll=1000,358 / min-luma=0 / max-luma=1023 / log2-max-poc-lsb=8 / vui-timing-info / vui-hrd-info / slices=1 / no-opt-qp-pps / no-opt-ref-list-length-pps / no-multi-pass-opt-rps / scenecut-bias=0.05 / no-opt-cu-delta-qp / no-aq-motion / hdr / hdr-opt / no-dhdr10-opt / no-idr-recovery-sei / analysis-reuse-level=5 / scale-factor=0 / refine-intra=0 / refine-inter=0 / refine-mv=0 / refine-ctu-distortion=0 / no-limit-sao / ctu-info=0 / no-lowpass-dct / refine-analysis-type=0 / copy-pic=1 / max-ausize-factor=1.0 / no-dynamic-refine / no-single-sei / no-hevc-aq / no-svt / no-field / qp-adaptation-range=1.00
Language                    : English
Default                     : Yes
Forced                      : No
Color range                 : Limited
Color primaries             : BT.2020
Transfer characteristics    : PQ
Matrix coefficients         : BT.2020 non-constant
Mastering display color pri : Display P3
Mastering display luminance : min: 0.0010 cd/m2, max: 1000 cd/m2
Maximum Content Light Level : 1000 cd/m2
Maximum Frame-Average Light : 358 cd/m2
Audio #1
ID                          : 2
Format                      : AC-3
Format/Info                 : Audio Coding 3
Commercial name             : Dolby Digital
Codec ID                    : A_AC3
Duration                    : 2 h 10 min
Bit rate mode               : Constant
Bit rate                    : 384 kb/s
Channel(s)                  : 6 channels
Channel layout              : L R C LFE Ls Rs
Sampling rate               : 48.0 kHz
Frame rate                  : 31.250 FPS (1536 SPF)
Bit depth                   : 16 bits
Compression mode            : Lossy
Stream size                 : 359 MiB (2%)
Title                       : Дубляж [iTunes]
Language                    : Russian
Service kind                : Complete Main
Default                     : Yes
Forced                      : No
Audio #2
ID                          : 3
Format                      : DTS
Format/Info                 : Digital Theater Systems
Codec ID                    : A_DTS
Duration                    : 2 h 10 min
Bit rate mode               : Constant
Bit rate                    : 1 509 kb/s
Channel(s)                  : 6 channels
Channel layout              : C L R Ls Rs LFE
Sampling rate               : 48.0 kHz
Frame rate                  : 93.750 FPS (512 SPF)
Bit depth                   : 24 bits
Compression mode            : Lossy
Stream size                 : 1.38 GiB (7%)
Title                       : Многоголосый закадровый [HDrezka]
Language                    : Russian
Default                     : No
Forced                      : No
Audio #3
ID                          : 4
Format                      : DTS
Format/Info                 : Digital Theater Systems
Codec ID                    : A_DTS
Duration                    : 2 h 10 min
Bit rate mode               : Constant
Bit rate                    : 1 509 kb/s
Channel(s)                  : 6 channels
Channel layout              : C L R Ls Rs LFE
Sampling rate               : 48.0 kHz
Frame rate                  : 93.750 FPS (512 SPF)
Bit depth                   : 24 bits
Compression mode            : Lossy
Stream size                 : 1.38 GiB (7%)
Title                       : Одноголосый закадровый [Д. Есарев]
Language                    : Russian
Default                     : No
Forced                      : No
Audio #4
ID                          : 5
Format                      : AC-3
Format/Info                 : Audio Coding 3
Commercial name             : Dolby Digital
Codec ID                    : A_AC3
Duration                    : 2 h 10 min
Bit rate mode               : Constant
Bit rate                    : 192 kb/s
Channel(s)                  : 2 channels
Channel layout              : L R
Sampling rate               : 48.0 kHz
Frame rate                  : 31.250 FPS (1536 SPF)
Bit depth                   : 16 bits
Compression mode            : Lossy
Stream size                 : 180 MiB (1%)
Title                       : Дубляж [студія Pie Post Production]
Language                    : Ukrainian
Service kind                : Complete Main
Default                     : No
Forced                      : No
Audio #5
ID                          : 6
Format                      : E-AC-3
Format/Info                 : Enhanced AC-3
Commercial name             : Dolby Digital Plus
Format profile              : Blu-ray Disc
Codec ID                    : A_EAC3
Duration                    : 2 h 10 min
Bit rate mode               : Constant
Bit rate                    : 1 536 kb/s
Channel(s)                  : 6 channels
Channel(s)_Original         : 8 channels
Channel layout              : L R C LFE Ls Rs Lb Rb
Sampling rate               : 48.0 kHz
Frame rate                  : 31.250 FPS (1536 SPF)
Compression mode            : Lossy
Stream size                 : 1.40 GiB (7%)
Language                    : English
Service kind                : Complete Main
Default                     : No
Forced                      : No
Text #1
ID                          : 7
Format                      : UTF-8
Codec ID                    : S_TEXT/UTF8
Codec ID/Info               : UTF-8 Plain Text
Duration                    : 1 h 47 min
Bit rate                    : 2 b/s
Count of elements           : 41
Stream size                 : 1.63 KiB (0%)
Title                       : Forced
Language                    : Russian
Default                     : Yes
Forced                      : Yes
Text #2
ID                          : 8
Format                      : UTF-8
Codec ID                    : S_TEXT/UTF8
Codec ID/Info               : UTF-8 Plain Text
Duration                    : 2 h 1 min
Bit rate                    : 40 b/s
Count of elements           : 800
Stream size                 : 36.3 KiB (0%)
Title                       : Full
Language                    : Russian
Default                     : No
Forced                      : No
Text #3
ID                          : 9
Format                      : UTF-8
Codec ID                    : S_TEXT/UTF8
Codec ID/Info               : UTF-8 Plain Text
Duration                    : 1 h 34 min
Bit rate                    : 1 b/s
Count of elements           : 24
Stream size                 : 1 010 Bytes (0%)
Title                       : Forced
Language                    : Ukrainian
Default                     : No
Forced                      : No
Text #4
ID                          : 10
Format                      : UTF-8
Codec ID                    : S_TEXT/UTF8
Codec ID/Info               : UTF-8 Plain Text
Duration                    : 1 h 59 min
Bit rate                    : 24 b/s
Count of elements           : 691
Stream size                 : 21.4 KiB (0%)
Title                       : Full
Language                    : English
Default                     : No
Forced                      : No
Text #5
ID                          : 11
Format                      : UTF-8
Codec ID                    : S_TEXT/UTF8
Codec ID/Info               : UTF-8 Plain Text
Duration                    : 2 h 0 min
Bit rate                    : 31 b/s
Count of elements           : 1141
Stream size                 : 27.9 KiB (0%)
Title                       : Full SDH
Language                    : English
Default                     : No
Forced                      : No
Menu
00:00:00.000                : en:Chapter 01
00:08:46.860                : en:Chapter 02
00:14:06.763                : en:Chapter 03
00:22:40.401                : en:Chapter 04
00:31:26.301                : en:Chapter 05
00:37:51.311                : en:Chapter 06
00:47:43.319                : en:Chapter 07
00:57:09.176                : en:Chapter 08
01:02:56.439                : en:Chapter 09
01:14:27.671                : en:Chapter 10
01:20:36.665                : en:Chapter 11
01:28:48.365                : en:Chapter 12
01:33:51.793                : en:Chapter 13
01:41:31.794                : en:Chapter 14
01:53:44.651                : en:Chapter 15
01:59:51.434                : en:Chapter 16

Скриншоты

[Цитировать]



Показать сообщения:    

Текущее время: 20-Окт 13:39

Часовой пояс: UTC + 6


Вы не можете начинать темы
Вы не можете отвечать на сообщения
Вы не можете редактировать свои сообщения
Вы не можете удалять свои сообщения
Вы не можете голосовать в опросах
Вы не можете прикреплять файлы к сообщениям
Вы не можете скачивать файлы

!ВНИМАНИЕ!
Сайт не предоставляет электронные версии произведений, а занимается лишь коллекционированием и каталогизацией ссылок, присылаемых и публикуемых на форуме нашими читателями. Если вы являетесь правообладателем какого-либо представленного материала и не желаете, чтобы ссылка на него находилась в нашем каталоге, свяжитесь с нами, и мы незамедлительно удалим ее. Файлы для обмена на трекере предоставлены пользователями сайта, и администрация не несет ответственности за их содержание. Просьба не заливать файлы, защищенные авторскими правами, а также файлы нелегального содержания!