***Уважаемые пользователи и гости !!! Сайт переехал на новый домен Torrents-club.net. Просьба изменить ваши закладки! ***
 
[ Сегодня идет свободное скачивание без начисления Download ]


Статистика раздачи
Нет
 
   
 
 
 
КВН-2019. Высшая лига (2019) SATRip- Телекомпания: Первый канал
Жанр: Юмор
Ведущий: Александр Масляков
Жюри: Александр Васильевич Масляков, Александр Александрович Масляков, Семен Слепаков, Евгений Донских.
Описание:
Что такое КВН, знают, без сомнения, все. В КВН играют во всем мире, это прежде всего молодежная игра. Постоянные конкурсные задания: "Визитная карточка", "Разминка", "Конкурс капитанов", "Музыкальный конкурс", "Домашнее задание". Игру команд оценивает профессиональное жюри — люди, у которых с чувством юмора все в порядке, многие из них раньше сами играли в КВН. Среди членов жюри были Константин Эрнст, Леонид Парфенов, Юлий Гусман, Леонид Ярмольник, Валдис Пельш, Сергей Шолохов, Геннадий Хазанов и другие. Кроме самих игр проводятся ежегодные встречи: фестиваль команд КВН (с 1990 г., семь раз фестиваль проходил в г.Сочи), музыкальный фестиваль КВН, летний кубок КВН, международные товарищеские игры в КВН. Сборная КВН играет со сборными других стран. Уже состоялись игры между сборной КВН и сборными Америки, Австралии, Израиля... Игра в КВН для многих становится профессией, а многие благодаря игре связывают жизнь с искусством. Из КВН "вышли": Леонид Якубович, Михаил Марфин, Татьяна Лазарева, Олег Филимонов, Юлий Гусман и многие другие.
Продолжительность: 01:47:45
Качество видео: SATRip
Видео: XviD, 704x448, 1798 kbps
Аудио: 48 kHz, MPEG Layer 3, 2 ch, ~192 kbps

Команды:

КВН-2019. Высшая лига. КиВиН-2019. Отборочная игра (2019.02.16)
«Вятка», сборная Кировской области
«Раисы», Иркутск
Сборная Забайкальского края, Чита
Сборная Великобритании, Лондон
«Наполеон Динамит», Тюменская область
«Умные люди», Рязань
Сборная Коргалжино, Астана
«Селивановы», УлГТУ, Ульяновск
«Михаил Дудиков», сборная CКФУ, Ставрополь
Сборная Газпром нефти, «G-Drive»
«Волжане – СамГТУ, Самара
«Борцы. Северный десант», Сургут
«Так-то», СФУ, Красноярск
«Русская дорога», АГПУ, Армавир
Орел, «Такая история», ОГУ им. Тургенева
«Татнефть», Альметьевск
Санкт-Петербург, Сборная Петербургского государственного университета путей сообщения Императора Александра I «Без консервантов»
«BELARUSЫ», Минский тракторный завод Минск
«Сурский край», Пензенская область
«Будем дружить семьями», Москва
Сборная Снежногорска, Снежногорск
«Планета Сочи», Сочи
«НАТЕ», Станица Брюховецкая
КВН-2019. Высшая лига. 1.8 финала. Игра 1 (2019.02.24)
«Борцы. Северный десант», Сургут
«Планета Сочи», Сочи
«Актеры», Санкт-Петербург
«Селивановы», УлГТУ, Ульяновск
«G-Drive», Сборная Газпром нефти
КВН-2019. Высшая лига. 1.8 финала. Игра 2 (2019.03.03)
Сборная Великобритании, Лондон
«Михаил Дудиков», сборная CКФУ, Ставрополь
Сборная Забайкальского края, Чита
«Город снов», Элиста, Республика Калмыкия
«Такая история», ОГУ им. Тургенева, Орел
КВН-2019. Высшая лига. 1.8 финала. Игра 3 (2019.03.17)
«Так-то», СФУ, Красноярск
Сборная Снежногорска, Снежногорск
«Будем дружить семьями», Москва
«Волжане – СамГТУ, Самара
Сборная Коргалжино, Астана
КВН-2019. Высшая лига. 1.8 финала. Игра 4 (2019.03.31)
«Наполеон Динамит», Тюменская область
«НАТЕ», Станица Брюховецкая
«Умные люди», Рязань
«Татнефть», Альметьевск
«Громокошки», Липецк
КВН-2019. Высшая лига. 1.4 финала. Игра 1 (2019.04.28)
Сборная «Татнефти», Альметьевск
«Наполеон Динамит», Тюменская область
«Будем дружить семьями», Москва
«Михаил Дудиков», сборная CКФУ, Ставрополь
«Город снов», Элиста, Республика Калмыкия
КВН-2019. Высшая лига. 1.4 финала. Игра 2 (2019.05.12)
«Борцы. Северный десант», Сургут
Сборная Забайкальского края, Чита
«Планета Сочи», Сочи
«Умные люди», Рязань
«Такая история», Орёл
КВН-2019. Высшая лига. 1.4 финала. Игра 3 (2019.05.26)
«Так-то», СФУ, Красноярск
Сборная Снежногорска, Снежногорск
«Селивановы», УлГТУ, Ульяновск
«Волжане – СамГТУ», Самара
«НАТЕ», Станица Брюховецкая
КВН-2019. Высшая лига. Летний Кубок в Сочи (2019.09.14)
«Спарта» (Астана)
«Вятка» (Кировская область)
«Раисы» (Иркутск)
КВН-2019. Высшая лига. Голосящий КиВиН в Светлогорске (2019.09.21)
«Русская дорога» (Армавир)
Сборная Снежногорска (Снежногорск)
«Михаил Дудиков» (Сборная СКФУ, Ставрополь)
«Будем дружить семьями» (Москва)
«Наполеон Динамит» (Тюменская область)
Сборная «Татнефти» (Альметьевск)
«Борцы. Северный десант» (Сургут)
«Нате» (ст. Брюховецкая, Краснодарский край)
«Умные люди» (Рязань)
«Так-то» (СФУ, Красноярск)
«Актеры» (Санкт-Петербург)
Сборная Великобритании К5 (Лондон)
«G-Drive» (Сборная Газпромнефти)
«Планета Сочи» (Сочи)
«Омутинка» (Тюменская область)
«Полуостров» (КФУ, Симферополь)
«Лиля Брик» (БФУ им. Канта, Калининград)
КВН-2019. Высшая лига. 1.2 финала. Игра 1 (2019.10.12)
«Борцы. Северный десант» (Сургут)
Сборная «Татнефти» (Альметьевск)
«Такая история» (ОГУ им. Тургенева, Орел)
«НАТЕ» (Станица Брюховецкая)
«Волжане-СамГТУ» (Самара)

MI

Общее
Полное имя : D:\КВН-2018. Высшая лига. КиВиН-2019. Отборочная игра (2019.02.16).avi
Формат : AVI
Формат/Информация : Audio Video Interleave
Размер файла : 1,51 Гбайт
Продолжительность : 1 ч. 47 м.
Общий поток : 2000 Кбит/сек
Программа кодирования : VirtualDubMod 1.5.10.3 (build 2550/release)
Библиотека кодирования : VirtualDub build 29808/release
Видео
Идентификатор : 0
Формат : MPEG-4 Visual
Профиль формата : Advanced Simple@L5
Настройки формата : BVOP2
Параметр BVOP формата : 2
Параметр QPel формата : Нет
Параметр GMC формата : Без точки перехода
Параметр матрицы формата : Default (MPEG)
Идентификатор кодека : XVID
Идентификатор кодека/Подсказка : XviD
Продолжительность : 1 ч. 47 м.
Битрейт : 1798 Кбит/сек
Ширина : 704 пикселя
Высота : 448 пикселей
Соотношение сторон : 16:10
Частота кадров : 25,000 кадров/сек
Цветовое пространство : YUV
Субдискретизация насыщенности : 4:2:0
Битовая глубина : 8 бит
Тип развёртки : Прогрессивная
Метод сжатия : С потерями
Бит/(Пиксели*Кадры) : 0.228
Размер потока : 1,35 Гбайт (90%)
Библиотека кодирования : XviD 1.2.1 (UTC 2008-12-04)
Аудио
Идентификатор : 1
Формат : MPEG Audio
Версия формата : Version 1
Профиль формата : Layer 3
Идентификатор кодека : 55
Идентификатор кодека/Подсказка : MP3
Продолжительность : 1 ч. 47 м.
Вид битрейта : Постоянный
Битрейт : 192 Кбит/сек
Каналы : 2 канала
Частота : 48,0 КГц
Частота кадров : 41,667 кадра/сек (1152 SPF)
Метод сжатия : С потерями
Размер потока : 148 Мбайт (10%)
Выравнивание : Соединение по промежуткам
Продолжительность промежутка : 40 мс. (1,00 видеокадр)
Время предзагрузки промежутка : 504 мс.
Библиотека кодирования : LAME3.99r
Настройки программы : -m s -V 4 -q 9 -lowpass 18.6 -b 192
Скриншоты:

[Цитировать]



Показать сообщения:    

Текущее время: 19-Ноя 16:50

Часовой пояс: UTC + 6


Вы не можете начинать темы
Вы не можете отвечать на сообщения
Вы не можете редактировать свои сообщения
Вы не можете удалять свои сообщения
Вы не можете голосовать в опросах
Вы не можете прикреплять файлы к сообщениям
Вы не можете скачивать файлы

!ВНИМАНИЕ!
Сайт не предоставляет электронные версии произведений, а занимается лишь коллекционированием и каталогизацией ссылок, присылаемых и публикуемых на форуме нашими читателями. Если вы являетесь правообладателем какого-либо представленного материала и не желаете, чтобы ссылка на него находилась в нашем каталоге, свяжитесь с нами, и мы незамедлительно удалим ее. Файлы для обмена на трекере предоставлены пользователями сайта, и администрация не несет ответственности за их содержание. Просьба не заливать файлы, защищенные авторскими правами, а также файлы нелегального содержания!