***Уважаемые пользователи и гости !!! Сайт переехал на новый домен Torrents-club.net. Просьба изменить ваши закладки! ***
 
[ Сегодня идет свободное скачивание без начисления Download ]


Статистика раздачи
Качаю: [ 1 ]
Скачал: [ 9 ]
 
   
 
 
 
 
Бабочки и птицы [1-4 серии из 4] (2019) WEB-DLRip Оригинальное название: Бабочки и птицы
Год выпуска: 2019
Жанр: Детектив, мелодрама
Выпущено: Россия, ООО «Киностудия ФУ-24»
Режиссер: Руслан Паушу
В ролях: Анна Банщикова, Максим Дрозд, Кирилл Гребенщиков, Анастасия Веденская, Максим Иванов, Ингрид Олеринская, Дарья Лабужская, Сергей Тэсслер, Анна Носатова, Вероника Лысакова, Егор Дрозд, Пётр Белышков, Александр Мякушко, Олег Каменщиков, Константин Мазко, Альберт Бартош, Алёна Лисовская, Екатерина Ефимова, Лаура Джугелия, Мария Николаева (II), Сергей Ершов (II), Дарья Малахова (II), Антон Саркисов, Сергей Шанин, Фарангиз Файзиева, Константин Саушкин, Денис Бобышев, Татьяна Корнета, Виолетта Баринова, Ксения Шмакова
О сериале: Со стороны жизни Ольги могла бы позавидовать каждая женщина — умница-красавица, прекрасный муж, любящий сын, свое дело. Но богатые, как известно, тоже плачут, и за этой картинкой счастливой жизни не видно того, чего у Ольги нет — любви. Совершенно случайно на занятиях в конном клубе Ольга познакомилась с симпатичным и галантным Виктором, который оказался технологом. Спустя время из фирмы Ольги резко увольняется главный технолог. И с этого момента в жизни Ольги начинают происходить странные и непонятные события.

Качество: WEB-DLRip
Видео: XviD, ~ 1600 Кбит/с, 720x400, 25 кадр/с
Аудио: AC3, 2 ch, 192 Кбит/с
Продолжительность: 4 х ~ 00:44:44
Язык: Русский

"Скриншоты"

"MediaInfo"

General
Complete name: C:\00\6354\Бабочки и птицы. 2019.WEB-DLRip. Files-x\01.Бабочки и птицы. 2019.WEB-DLRip. Files-x .avi
Format: AVI
Format/Info: Audio Video Interleave
File size: 576 MiB
Duration: 44mn 44s
Overall bit rate: 1 802 Kbps
Writing application: VirtualDubMod 1.5.10.3 | www.virtualdub-fr.org || (build 2550/release)
Writing library: VirtualDubMod build 2550/release
Video
ID: 0
Format: MPEG-4 Visual
Format profile: Advanced Simple@L5
Format settings, BVOP: 1
Format settings, QPel: No
Format settings, GMC: No warppoints
Format settings, Matrix: Custom
Codec ID: XVID
Codec ID/Hint: XviD
Duration: 44mn 44s
Bit rate: 1 600 Kbps
Width: 720 pixels
Height: 400 pixels
Display aspect ratio: 16:9
Frame rate: 25.000 fps
Color space: YUV
Chroma subsampling: 4:2:0
Bit depth: 8 bits
Scan type: Progressive
Compression mode: Lossy
Bits/(Pixel*Frame): 0.222
Stream size: 512 MiB (89%)
Writing library: XviD 73
Audio
ID: 1
Format: AC-3
Format/Info: Audio Coding 3
Mode extension: CM (complete main)
Codec ID: 2000
Duration: 44mn 44s
Bit rate mode: Constant
Bit rate: 192 Kbps
Channel(s): 2 channels
Channel positions: Front: L R
Sampling rate: 48.0 KHz
Bit depth: 16 bits
Compression mode: Lossy
Stream size: 61.4 MiB (11%)
Alignment: Split accross interleaves
Interleave, duration: 40 ms (1.00 video frame)
Interleave, preload duration: 500 ms
Добавлены 1-4 серии.

[Цитировать]



Показать сообщения:    

Текущее время: 09-Дек 17:15

Часовой пояс: UTC + 6


Вы не можете начинать темы
Вы не можете отвечать на сообщения
Вы не можете редактировать свои сообщения
Вы не можете удалять свои сообщения
Вы не можете голосовать в опросах
Вы не можете прикреплять файлы к сообщениям
Вы не можете скачивать файлы

!ВНИМАНИЕ!
Сайт не предоставляет электронные версии произведений, а занимается лишь коллекционированием и каталогизацией ссылок, присылаемых и публикуемых на форуме нашими читателями. Если вы являетесь правообладателем какого-либо представленного материала и не желаете, чтобы ссылка на него находилась в нашем каталоге, свяжитесь с нами, и мы незамедлительно удалим ее. Файлы для обмена на трекере предоставлены пользователями сайта, и администрация не несет ответственности за их содержание. Просьба не заливать файлы, защищенные авторскими правами, а также файлы нелегального содержания!