***Уважаемые пользователи и гости !!! Сайт переехал на новый домен Torrents-club.net. Просьба изменить ваши закладки! ***
 
[ Сегодня идет свободное скачивание без начисления Download ]


Статистика раздачи
Скачал: [ 1 ]
 
   
 
 
 
 
«Тик-так, мистер Уик» Год выпуска: 2019
Производство: США / Lionsgate, Thunder Road, 87Eleven, Summit Entertainment, Image Engine Design Inc.
Жанр: Боевик, триллер, криминал
Режиссер: Чад Стахелски
Продюсеры: Бэзил Иваник, Эрика Ли, Джоби Харольд
Актеры: Киану Ривз, Холли Берри, Иэн МакШейн, Лоуренс Фишборн, Марк Дакаскос, Азия Диллон, Лэнс Реддик, Тобиаш Сигал, Анжелика Хьюстон, Саид Тагмауи
Описание:
Суперкиллер Джон Уик после нарушения кодекса тайной гильдии ассасинов получает статус изгоя — экскомьюникадо. За его голову назначена цена в 14 миллионов долларов, и армия самых жестоких профессиональных убийц со всего мира открывает на него кровавую охоту.
Перевод: Дублированный [iTunes] + Авторский [Д. Есарев]
Субтитры: Русские (full, forced), английские (full)-Дата мировой премьеры: 15 мая 2019
Дата российской премьеры: 16 мая 2019, «Централ Партнершип»
-Продолжительность: 02:05:21
Качество видео: DVD9
Видео: MPEG-2, 720x576@1024x576 (PAL 16:9), ~7300 Кбит/сек
Аудио 1: AC3 5.1, 384 Кбит/сек [Русский - дублированный]
Аудио 2: AC3 5.1, 448 Кбит/сек [Русский - авторский]
Аудио 3: AC3 5.1, 448 Кбит/сек [Английский - оригинал]
Доп. материалы: Нет

DVDInfo:

Title: John Wick. Chapter 3 - Parabellum (2019) DVD9 PAL
Size: 7.56 Gb ( 7 922 912,00 KBytes ) - DVD-9
Enabled regions: 1, 2, 3, 4, 5, 6, 7, 8
VTS_01 :
Play Length: 02:05:21
Video: PAL 16:9 (720x576) VBR, Auto Letterboxed
Audio:
Russian, AC3, 3/2 (L,C,R,SL,SR)+LFE ch, 384 kbps, Delay 0 mSec
Russian, AC3, 3/2 (L,C,R,SL,SR)+LFE ch, 448 kbps, Delay 0 mSec
English, AC3, 3/2 (L,C,R,SL,SR)+LFE ch, 448 kbps, Delay 0 mSec
Subtitles:
Russian
Russian
English

MediaInfo:

Общее
Полное имя : V:TorrentsJohn Wick. Chapter 3 - Parabellum (2019) DVD9 PALVIDEO_TSVTS_01_1.VOB
Формат : MPEG-PS
Размер файла : 1024 Мбайт
Продолжительность : 16 м. 11 с.
Режим общего битрейта : Переменный
Общий поток : 8845 Кбит/сек
Видео
Идентификатор : 224 (0xE0)
Формат : MPEG Video
Версия формата : Version 2
Профиль формата : Main@Main
Настройки формата : BVOP
Параметр BVOP формата : Да
Параметр матрицы формата : По умолчанию
Параметр GOP формата : M=3, N=12
Продолжительность : 16 м. 11 с.
Вид битрейта : Переменный
Битрейт : 7389 Кбит/сек
Максимальный битрейт : 8500 Кбит/сек
Ширина : 720 пикселей
Высота : 576 пикселей
Соотношение сторон : 16:9
Частота кадров : 25,000 кадров/сек
Стандарт вещания : PAL
Цветовое пространство : YUV
Субдискретизация насыщенности : 4:2:0
Битовая глубина : 8 бит
Тип развёртки : Прогрессивная
Метод сжатия : С потерями
Бит/(Пиксели*Кадры) : 0.713
Временной код первого кадра : 00:00:00:00
Оригинал временного кода : Group of pictures header
GOP, открыто/закрыто : Закрыто
Размер потока : 855 Мбайт (84%)
Аудио #1
Идентификатор : 189 (0xBD)-128 (0x80)
Формат : AC-3
Формат/Информация : Audio Coding 3
Параметр Endianness формата : Big
Режим смешивания : DVD-Video
Продолжительность : 16 м. 10 с.
Вид битрейта : Постоянный
Битрейт : 384 Кбит/сек
Каналы : 6 каналов
Расположение каналов : Front: L C R, Side: L R, LFE
Частота : 48,0 КГц
Частота кадров : 31,250 кадров/сек (1536 SPF)
Битовая глубина : 16 бит
Метод сжатия : С потерями
Размер потока : 44,4 Мбайт (4%)
ServiceKind : Complete Main
Аудио #2
Идентификатор : 189 (0xBD)-129 (0x81)
Формат : AC-3
Формат/Информация : Audio Coding 3
Параметр Endianness формата : Big
Режим смешивания : DVD-Video
Продолжительность : 16 м. 10 с.
Вид битрейта : Постоянный
Битрейт : 448 Кбит/сек
Каналы : 6 каналов
Расположение каналов : Front: L C R, Side: L R, LFE
Частота : 48,0 КГц
Частота кадров : 31,250 кадров/сек (1536 SPF)
Битовая глубина : 16 бит
Метод сжатия : С потерями
Размер потока : 51,9 Мбайт (5%)
ServiceKind : Complete Main
Аудио #3
Идентификатор : 189 (0xBD)-130 (0x82)
Формат : AC-3
Формат/Информация : Audio Coding 3
Параметр Endianness формата : Big
Режим смешивания : DVD-Video
Продолжительность : 16 м. 10 с.
Вид битрейта : Постоянный
Битрейт : 448 Кбит/сек
Каналы : 6 каналов
Расположение каналов : Front: L C R, Side: L R, LFE
Частота : 48,0 КГц
Частота кадров : 31,250 кадров/сек (1536 SPF)
Битовая глубина : 16 бит
Метод сжатия : С потерями
Размер потока : 51,9 Мбайт (5%)
ServiceKind : Complete Main
Меню

Доп. информация:

Источником DVD9 послужила лицензия из рубежа (John.Wick.Chapter.3.Parabellum.2019.PAL.DVD9-WiNTeaM). Дубляж, авторскую звуковую дорогу и субтитры взял с BDRip заменив на диске ими португальские субтитры. Аудио обрабатывал UsEac3To и Vegas Pro. Субтитры обрабатывал программой SubtitleEdit и DVD-lab PRO 2. DVD обрабатывал с помощью Adobe Encore, Adobe Photoshop, MuxMan и DvdReMakePro. С лицензии взял только видео с фильмом, аудио и меню. Команды диска переписаны и существенно отличаются от лицензии.

Скриншоты меню:

Скриншоты:

[Цитировать]



Показать сообщения:    

Текущее время: 12-Ноя 09:25

Часовой пояс: UTC + 6


Вы не можете начинать темы
Вы не можете отвечать на сообщения
Вы не можете редактировать свои сообщения
Вы не можете удалять свои сообщения
Вы не можете голосовать в опросах
Вы не можете прикреплять файлы к сообщениям
Вы не можете скачивать файлы

!ВНИМАНИЕ!
Сайт не предоставляет электронные версии произведений, а занимается лишь коллекционированием и каталогизацией ссылок, присылаемых и публикуемых на форуме нашими читателями. Если вы являетесь правообладателем какого-либо представленного материала и не желаете, чтобы ссылка на него находилась в нашем каталоге, свяжитесь с нами, и мы незамедлительно удалим ее. Файлы для обмена на трекере предоставлены пользователями сайта, и администрация не несет ответственности за их содержание. Просьба не заливать файлы, защищенные авторскими правами, а также файлы нелегального содержания!