***Уважаемые пользователи и гости !!! Сайт переехал на новый домен Torrents-club.net. Просьба изменить ваши закладки! ***
 
[ Сегодня идет свободное скачивание без начисления Download ]


Статистика раздачи
Нет
 
   
 
 
 
 
Птичий дозор / Manou the Swift
«Держи клюв по ветру!»-
Год выпуска: 2019
Страна: Германия
Производство: LUXX Film
Жанр: Мультфильм, комедия, приключения, семейный, полнометражный
Режиссёр: Кристиан Хаас, Андреа Блок
В ролях: Кейт Уинслет, Уиллем Дефо, Роб Полсен, Джошуа Китон, Джули Натансон, Дэвид Шонесси, Ариф С. Кинчен, Фридрих Мюке, Кассандра Стин, Доминик Кун
Перевод: Дублированный | [iTunes]
Субтитры: Нет
Реклама: Отсутствует
Описание: Стриж Ману растет в семье чаек и изо всех сил пытается научиться плавать, ловить рыбу и летать так же, как и они. Но во время традиционного летнего состязания он понимает, что никогда не сможет стать чайкой. Раздосадованный Ману улетает из дома, где встречает новых друзей. Из-за этого портятся его отношения с родной стаей. Но тут в дело вмешивается случай. Ману, который вырос отважным как чайка и изобретательным как стриж, удается уберечь и чаек, и стрижей от надвигающейся опасности и стать героем в глазах и тех и других.

Качество: BDRip-AVC | BDRemux | Manou.the.Swift.2019.1080p.BluRay.REMUX.AVC.DTS-HD.MA.5.1-FGT
Продолжительность: 01:28:36
Формат: MKV
Видео кодек: MPEG-4 AVC
Аудио кодек: AC3
Видео: 1024x576 (16:9), 24,000 fps, x264 ~2 135 kbps avg, 0.151 bit/pixel
Аудио: 48 kHz, AC3 Dolby Digital, 3/2 (L,C,R,l,r) + LFE ch, ~384.00 kbps avg | RUS (iTunes)
Дата премьеры (мир): 25 января 2019
Дата премьеры (РФ): 12 сентября 2019, «Наше Кино»

MediaInfo

Общее
Уникальный идентификатор : 324827505006239440919828248262616941212 (0xF45F807A3D0CCDEC45C52259A11A029C)
Полное имя : F:OlLanDGroupManou.the.Swift.2019.BDRip(AVC).OlLanDGroup.mkv
Формат : Matroska
Версия формата : Version 4 / Version 2
Размер файла : 1,56 Гбайт
Продолжительность : 1 ч. 28 м.
Общий поток : 2515 Кбит/сек
Название фильма : Manou.the.Swift.2019 #TorpedoUK#
Дата кодирования : UTC 2019-10-24 14:44:01
Программа кодирования : mkvmerge v29.0.0 ('Like It Or Not') 64-bit
Библиотека кодирования : libebml v1.3.6 + libmatroska v1.4.9
Видео
Идентификатор : 1
Формат : AVC
Формат/Информация : Advanced Video Codec
Профиль формата : High@L4.1
Параметр CABAC формата : Да
Параметр ReFrames формата : 10 кадров
Идентификатор кодека : V_MPEG4/ISO/AVC
Продолжительность : 1 ч. 28 м.
Битрейт : 2135 Кбит/сек
Ширина : 1024 пикселя
Высота : 576 пикселей
Соотношение сторон : 16:9
Режим частоты кадров : Постоянный
Частота кадров : 24,000 кадра/сек
Цветовое пространство : YUV
Субдискретизация насыщенности : 4:2:0
Битовая глубина : 8 бит
Тип развёртки : Прогрессивная
Бит/(Пиксели*Кадры) : 0.151
Размер потока : 1,32 Гбайт (85%)
Библиотека кодирования : x264 core 146 r2538 121396c
Настройки программы : cabac=1 / ref=10 / deblock=1:-3:-3 / analyse=0x3:0x113 / me=umh / subme=11 / psy=1 / psy_rd=1.00:0.03 / mixed_ref=1 / me_range=48 / chroma_me=1 / trellis=2 / 8x8dct=1 / cqm=0 / deadzone=21,11 / fast_pskip=1 / chroma_qp_offset=-6 / threads=6 / lookahead_threads=1 / sliced_threads=0 / nr=0 / decimate=1 / interlaced=0 / bluray_compat=0 / constrained_intra=0 / bframes=11 / b_pyramid=2 / b_adapt=2 / b_bias=0 / direct=3 / weightb=1 / open_gop=0 / weightp=2 / keyint=240 / keyint_min=24 / scenecut=40 / intra_refresh=0 / rc_lookahead=40 / rc=2pass / mbtree=0 / bitrate=2135 / ratetol=1.0 / qcomp=0.60 / qpmin=0 / qpmax=69 / qpstep=4 / cplxblur=20.0 / qblur=0.5 / vbv_maxrate=50000 / vbv_bufsize=62500 / nal_hrd=none / filler=0 / ip_ratio=1.40 / pb_ratio=1.30 / aq=1:1.00
Язык : English
Default : Да
Forced : Нет
Аудио
Идентификатор : 2
Формат : AC-3
Формат/Информация : Audio Coding 3
Расширение режима : CM (complete main)
Параметр Endianness формата : Big
Идентификатор кодека : A_AC3
Продолжительность : 1 ч. 28 м.
Вид битрейта : Постоянный
Битрейт : 384 Кбит/сек
Каналы : 6 каналов
Расположение каналов : Front: L C R, Side: L R, LFE
Частота : 48,0 КГц
Частота кадров : 31,250 кадров/сек (1536 spf)
Битовая глубина : 16 бит
Метод сжатия : С потерями
Размер потока : 243 Мбайт (15%)
Заголовок : DUB [iTunes]
Язык : Russian
Default : Да
Forced : Нет
Меню
00:00:00.000 : en:Chapter 01
00:06:57.625 : en:Chapter 02
00:14:10.083 : en:Chapter 03
00:22:33.333 : en:Chapter 04
00:31:38.833 : en:Chapter 05
00:36:06.791 : en:Chapter 06
00:43:52.833 : en:Chapter 07
00:52:12.791 : en:Chapter 08
00:59:52.916 : en:Chapter 09
01:07:00.708 : en:Chapter 10
01:14:10.208 : en:Chapter 11
01:21:52.208 : en:Chapter 12

Скриншоты



[Цитировать]



Показать сообщения:    

Текущее время: 19-Ноя 17:31

Часовой пояс: UTC + 6


Вы не можете начинать темы
Вы не можете отвечать на сообщения
Вы не можете редактировать свои сообщения
Вы не можете удалять свои сообщения
Вы не можете голосовать в опросах
Вы не можете прикреплять файлы к сообщениям
Вы не можете скачивать файлы

!ВНИМАНИЕ!
Сайт не предоставляет электронные версии произведений, а занимается лишь коллекционированием и каталогизацией ссылок, присылаемых и публикуемых на форуме нашими читателями. Если вы являетесь правообладателем какого-либо представленного материала и не желаете, чтобы ссылка на него находилась в нашем каталоге, свяжитесь с нами, и мы незамедлительно удалим ее. Файлы для обмена на трекере предоставлены пользователями сайта, и администрация не несет ответственности за их содержание. Просьба не заливать файлы, защищенные авторскими правами, а также файлы нелегального содержания!