***Уважаемые пользователи и гости !!! Сайт переехал на новый домен Torrents-club.net. Просьба изменить ваши закладки! ***
 
[ Сегодня идет свободное скачивание без начисления Download ]


Статистика раздачи
Скачал: [ 1 ]
 
   
 
 
 
 
Форсаж: Хоббс и Шоу / Fast & Furious Presents: Hobbs & Shaw (2019) [4K, HEVC, HDR, Dolby Vision TV DL / Blu-Ray Remux] (2160p) Год выпуска: 2019
Жанр: Боевик, приключения
Выпущено: Великобритания, США, Universal Pictures
Режиссер: Дэвид Литч
Продолжительность: 02:16:41
Перевод: Дублированный
Субтитры: Русские (Форс.)
возраст 12+

В ролях:
Дуэйн Джонсон, Джейсон Стэйтем, Идрис Эльба, Райан Рейнольдс, Ванесса Кирби, Хелен Миррен, Эйса Гонсалес, Эдди Марсан, Элиана Суа, Клифф Кёртис, Лори Пеленис Туисано, Элла-Рэй Смит

О фильме:
Люк Хоббс - американский элитный спецагент, он любит удобную спортивную одежду, большие пикапы и здоровое питание. Декард Шоу - британский пижон, бывший сотрудник разведки, предпочитает дорогие костюмы, спортивные авто и длинноногих красоток. Эти двое ненавидят друг друга. Но если кто-то угрожает их семьям, они готовы пойти на все. Даже на работу в команде.
ФОРСАЖ: ХОББС И ШОУ | Трейлер | в кино с 1 августа
Техданные
Качество: Blu-Ray Remux (2160p)
Видео: HEVC, 63.7 Мбит/с, 3840x2160
Аудио: Русский (AC3, 6 ch, 384 Кбит/с)
Релиз: селезень
Озвучивание: Дублированное [iTunes]
Субтитры: Русские (форсированные)
Без рекламы.

MediaInfo:

General
Complete name               : E:\Relizes\Fast.and.Furious.Presents.Hobbs.and.Shaw.2019.BDREMUX.2160p.HDR.DV.TV.seleZen\Fast.and.Furious.Presents.Hobbs.and.Shaw.2019.BDREMUX.2160p.HDR.DV.TV.seleZen.mp4
Format                      : MPEG-4
Format profile              : Base Media / Version 2
Codec ID                    : mp42 (mp42/dby1/isom)
File size                   : 67.9 GiB
Duration                    : 2 h 16 min
Overall bit rate            : 71.1 Mb/s
Encoded date                : UTC 2019-10-27 08:19:28
Tagged date                 : UTC 2019-10-27 08:19:28
Video #1
ID                          : 1
Format                      : HEVC
Format/Info                 : High Efficiency Video Coding
Format profile              : Main 10@L5.1@High
HDR format                  : SMPTE ST 2094 App 4, Version 1, HDR10+ Profile B compatible
Codec ID                    : hev1
Codec ID/Info               : High Efficiency Video Coding
Duration                    : 2 h 16 min
Bit rate                    : 63.7 Mb/s
Width                       : 3 840 pixels
Height                      : 2 160 pixels
Display aspect ratio        : 16:9
Frame rate mode             : Constant
Frame rate                  : 23.976 (24000/1001) FPS
Color space                 : YUV
Chroma subsampling          : 4:2:0 (Type 2)
Bit depth                   : 10 bits
Bits/(Pixel*Frame)          : 0.320
Stream size                 : 60.8 GiB (90%)
Default                     : No
Encoded date                : UTC 2019-10-27 08:19:28
Tagged date                 : UTC 2019-10-27 08:19:28
Color range                 : Limited
Color primaries             : BT.2020
Transfer characteristics    : PQ
Matrix coefficients         : BT.2020 non-constant
Mastering display color pri : Display P3
Mastering display luminance : min: 0.0050 cd/m2, max: 4000 cd/m2
Maximum Content Light Level : 1000 cd/m2
Maximum Frame-Average Light : 419 cd/m2
Codec configuration box     : hvcC
Video #2
ID                          : 2
Format                      : HEVC
Format/Info                 : High Efficiency Video Coding
Format profile              : Main 10@L5.1@High
HDR format                  : Dolby Vision, Version 1.0, dvhe.07.06, EL+RPU / SMPTE ST 2086, HDR10 compatible
Codec ID                    : dvhe
Codec ID/Info               : High Efficiency Video Coding with Dolby Vision
Duration                    : 2 h 16 min
Bit rate                    : 6 989 kb/s
Width                       : 1 920 pixels
Height                      : 1 080 pixels
Display aspect ratio        : 16:9
Frame rate mode             : Constant
Frame rate                  : 23.976 (24000/1001) FPS
Color space                 : YUV
Chroma subsampling          : 4:2:0 (Type 2)
Bit depth                   : 10 bits
Bits/(Pixel*Frame)          : 0.141
Stream size                 : 6.67 GiB (10%)
Default                     : No
Encoded date                : UTC 2019-10-27 08:19:28
Tagged date                 : UTC 2019-10-27 08:19:28
Color range                 : Limited
Color primaries             : BT.2020
Transfer characteristics    : PQ
Matrix coefficients         : BT.2020 non-constant
Mastering display color pri : Display P3
Mastering display luminance : min: 0.0050 cd/m2, max: 4000 cd/m2
Codec configuration box     : hvcC+dvcC
Audio
ID                          : 3
Format                      : AC-3
Format/Info                 : Audio Coding 3
Commercial name             : Dolby Digital
Codec ID                    : ac-3
Duration                    : 2 h 16 min
Bit rate mode               : Constant
Bit rate                    : 384 kb/s
Channel(s)                  : 6 channels
Channel layout              : L R C LFE Ls Rs
Sampling rate               : 48.0 kHz
Frame rate                  : 31.250 FPS (1536 SPF)
Bit depth                   : 16 bits
Compression mode            : Lossy
Stream size                 : 375 MiB (1%)
Language                    : Russian
Service kind                : Complete Main
Default                     : No
Encoded date                : UTC 2019-10-27 08:19:28
Tagged date                 : UTC 2019-10-27 08:19:28

RAW Paste Data

General
Complete name               : E:\Relizes\Fast.and.Furious.Presents.Hobbs.and.Shaw.2019.BDREMUX.2160p.HDR.DV.TV.seleZen\Fast.and.Furious.Presents.Hobbs.and.Shaw.2019.BDREMUX.2160p.HDR.DV.TV.seleZen.mp4
Format                      : MPEG-4
Format profile              : Base Media / Version 2
Codec ID                    : mp42 (mp42/dby1/isom)
File size                   : 67.9 GiB
Duration                    : 2 h 16 min
Overall bit rate            : 71.1 Mb/s
Encoded date                : UTC 2019-10-27 08:19:28
Tagged date                 : UTC 2019-10-27 08:19:28
Video #1
ID                          : 1
Format                      : HEVC
Format/Info                 : High Efficiency Video Coding
Format profile              : Main 10@L5.1@High
HDR format                  : SMPTE ST 2094 App 4, Version 1, HDR10+ Profile B compatible
Codec ID                    : hev1
Codec ID/Info               : High Efficiency Video Coding
Duration                    : 2 h 16 min
Bit rate                    : 63.7 Mb/s
Width                       : 3 840 pixels
Height                      : 2 160 pixels
Display aspect ratio        : 16:9
Frame rate mode             : Constant
Frame rate                  : 23.976 (24000/1001) FPS
Color space                 : YUV
Chroma subsampling          : 4:2:0 (Type 2)
Bit depth                   : 10 bits
Bits/(Pixel*Frame)          : 0.320
Stream size                 : 60.8 GiB (90%)
Default                     : No
Encoded date                : UTC 2019-10-27 08:19:28
Tagged date                 : UTC 2019-10-27 08:19:28
Color range                 : Limited
Color primaries             : BT.2020
Transfer characteristics    : PQ
Matrix coefficients         : BT.2020 non-constant
Mastering display color pri : Display P3
Mastering display luminance : min: 0.0050 cd/m2, max: 4000 cd/m2
Maximum Content Light Level : 1000 cd/m2
Maximum Frame-Average Light : 419 cd/m2
Codec configuration box     : hvcC
Video #2
ID                          : 2
Format                      : HEVC
Format/Info                 : High Efficiency Video Coding
Format profile              : Main 10@L5.1@High
HDR format                  : Dolby Vision, Version 1.0, dvhe.07.06, EL+RPU / SMPTE ST 2086, HDR10 compatible
Codec ID                    : dvhe
Codec ID/Info               : High Efficiency Video Coding with Dolby Vision
Duration                    : 2 h 16 min
Bit rate                    : 6 989 kb/s
Width                       : 1 920 pixels
Height                      : 1 080 pixels
Display aspect ratio        : 16:9
Frame rate mode             : Constant
Frame rate                  : 23.976 (24000/1001) FPS
Color space                 : YUV
Chroma subsampling          : 4:2:0 (Type 2)
Bit depth                   : 10 bits
Bits/(Pixel*Frame)          : 0.141
Stream size                 : 6.67 GiB (10%)
Default                     : No
Encoded date                : UTC 2019-10-27 08:19:28
Tagged date                 : UTC 2019-10-27 08:19:28
Color range                 : Limited
Color primaries             : BT.2020
Transfer characteristics    : PQ
Matrix coefficients         : BT.2020 non-constant
Mastering display color pri : Display P3
Mastering display luminance : min: 0.0050 cd/m2, max: 4000 cd/m2
Codec configuration box     : hvcC+dvcC
Audio
ID                          : 3
Format                      : AC-3
Format/Info                 : Audio Coding 3
Commercial name             : Dolby Digital
Codec ID                    : ac-3
Duration                    : 2 h 16 min
Bit rate mode               : Constant
Bit rate                    : 384 kb/s
Channel(s)                  : 6 channels
Channel layout              : L R C LFE Ls Rs
Sampling rate               : 48.0 kHz
Frame rate                  : 31.250 FPS (1536 SPF)
Bit depth                   : 16 bits
Compression mode            : Lossy
Stream size                 : 375 MiB (1%)
Language                    : Russian
Service kind                : Complete Main
Default                     : No
Encoded date                : UTC 2019-10-27 08:19:28
Tagged date                 : UTC 2019-10-27 08:19:28

Скриншоты

[Цитировать]

https://torrents-club.net/viewtopic.php?t=154656
Лицензия

[Цитировать]

Топик был перенесен из форума Архив в форум Поглощенные
kiryandr



Показать сообщения:    

Текущее время: 15-Дек 21:06

Часовой пояс: UTC + 6


Вы не можете начинать темы
Вы не можете отвечать на сообщения
Вы не можете редактировать свои сообщения
Вы не можете удалять свои сообщения
Вы не можете голосовать в опросах
Вы не можете прикреплять файлы к сообщениям
Вы не можете скачивать файлы

!ВНИМАНИЕ!
Сайт не предоставляет электронные версии произведений, а занимается лишь коллекционированием и каталогизацией ссылок, присылаемых и публикуемых на форуме нашими читателями. Если вы являетесь правообладателем какого-либо представленного материала и не желаете, чтобы ссылка на него находилась в нашем каталоге, свяжитесь с нами, и мы незамедлительно удалим ее. Файлы для обмена на трекере предоставлены пользователями сайта, и администрация не несет ответственности за их содержание. Просьба не заливать файлы, защищенные авторскими правами, а также файлы нелегального содержания!