***Уважаемые пользователи и гости !!! Сайт переехал на новый домен Torrents-club.net. Просьба изменить ваши закладки! ***
 
[ Сегодня идет свободное скачивание без начисления Download ]


Статистика раздачи
Скачал: [ 1 ]
 
   
 
 
 
 
Екатерина. Самозванцы [S03] (2019)Оригинальное название: Екатерина. Самозванцы
Год выпуска: 2019
Жанр: История, драма, биография
Выпущено: Россия, «COSMOS studio»
Режиссер: Дмитрий Иосифов
В ролях: Марина Александрова, Павел Табаков, Ангелина Стречина, Артур Иванов, Сергей Колтаков, Артём Алексеев , Владимир Яглыч, Александр Ткачев , Алина Томников, Михаил Горевой, Игорь Балалаев, Игорь Скляр, Игорь Головин, Станислав Стрелков, Данила Дунаев, Семён Лопатин, Кузьма Сапрыкин, Диана Милютина, Александр Назаров , Сергей Барковский, Сергей Горошко, Моника Госсманн, Василиса Измайлова, Ола Кейру, Максим Важов, Артем Кретов, Данил Слуцкий, Светлана Смирнова
О фильме: 1774 год, правление Екатерины оказалось под большой угрозой с четырех сторон. Идет война с Турцией, которая может обернуться для России либо удачным миром, либо сокрушительным поражением. Кроме того, в Париже в руках беглых поляков и французских авантюристов оказывается важный козырь против Екатерины — Елизавета Тараканова, самозваная дочь Елизаветы Петровны. На юге России разгорается крестьянское восстание Емельяна Пугачева — еще одного самозванца, объявившего себя Петром III. Наконец, опасность зреет и во дворце: Панин просчитывает варианты передачи власти от Екатерины Павлу. От решений императрицы зависит судьба России.

Качество: HDTVRip
Видео: XviD build 73, 720x400 (16:9), 25.000 fps, ~ 1450 Kbps (~ 0.198 bit/pixel)
Аудио: 48.0 kHz, AC3, 2/0 ch, 192 kbps
Продолжительность: 16 х ~ 00:48:00
Перевод: Не требуется [Русский]
Cубтитры: нет

Скриншоты


MediaInfo

General
Complete name : D:RazdachiEkaterina.Samozvancy.2019.HDTVRip.GeneralFilmEkaterina.Samozvancy.e01.avi
Format : AVI
Format/Info : Audio Video Interleave
File size : 557 MiB
Duration : 47 min 56 s
Overall bit rate : 1 624 kb/s
Writing application : VirtualDubMod 1.5.10.3 | www.virtualdub-fr.org || (build 2550/release)
Writing library : VirtualDubMod build 2550/release
Video
ID : 0
Format : MPEG-4 Visual
Format profile : Advanced Simple@L5
Format settings : BVOP1 / Custom Matrix
Format settings, BVOP : 1
Format settings, QPel : No
Format settings, GMC : No warppoints
Format settings, Matrix : Custom
Codec ID : XVID
Codec ID/Hint : XviD
Duration : 47 min 56 s
Bit rate : 1 423 kb/s
Width : 720 pixels
Height : 400 pixels
Display aspect ratio : 16:9
Frame rate : 25.000 FPS
Color space : YUV
Chroma subsampling : 4:2:0
Bit depth : 8 bits
Scan type : Progressive
Compression mode : Lossy
Bits/(Pixel*Frame) : 0.198
Stream size : 488 MiB (88%)
Writing library : XviD 73
Audio
ID : 1
Format : AC-3
Format/Info : Audio Coding 3
Commercial name : Dolby Digital
Codec ID : 2000
Duration : 47 min 56 s
Bit rate mode : Constant
Bit rate : 192 kb/s
Channel(s) : 2 channels
Channel layout : L R
Sampling rate : 48.0 kHz
Frame rate : 31.250 FPS (1536 SPF)
Bit depth : 16 bits
Compression mode : Lossy
Stream size : 65.8 MiB (12%)
Alignment : Split accross interleaves
Interleave, duration : 40 ms (1.00 video frame)
Interleave, preload duratio : 500 ms
Service kind : Complete Main

[Цитировать]



Показать сообщения:    

Текущее время: 19-Ноя 16:29

Часовой пояс: UTC + 6


Вы не можете начинать темы
Вы не можете отвечать на сообщения
Вы не можете редактировать свои сообщения
Вы не можете удалять свои сообщения
Вы не можете голосовать в опросах
Вы не можете прикреплять файлы к сообщениям
Вы не можете скачивать файлы

!ВНИМАНИЕ!
Сайт не предоставляет электронные версии произведений, а занимается лишь коллекционированием и каталогизацией ссылок, присылаемых и публикуемых на форуме нашими читателями. Если вы являетесь правообладателем какого-либо представленного материала и не желаете, чтобы ссылка на него находилась в нашем каталоге, свяжитесь с нами, и мы незамедлительно удалим ее. Файлы для обмена на трекере предоставлены пользователями сайта, и администрация не несет ответственности за их содержание. Просьба не заливать файлы, защищенные авторскими правами, а также файлы нелегального содержания!